<?xml version="1.0" standalone="no"?>
<!DOCTYPE svg PUBLIC "-//W3C//DTD SVG 1.1//EN" "http://www.w3.org/Graphics/SVG/1.1/DTD/svg11.dtd" >
<svg xmlns="http://www.w3.org/2000/svg" xmlns:xlink="http://www.w3.org/1999/xlink" version="1.1">
<metadata></metadata>
<defs>
<font id="fagonoregular" horiz-adv-x="1105" >
<font-face units-per-em="2048" ascent="1638" descent="-410" />
<missing-glyph horiz-adv-x="593" />
<glyph horiz-adv-x="0" />
<glyph horiz-adv-x="682" />
<glyph horiz-adv-x="843" d="M82 1577h174q0 -53 14.5 -91t38 -60.5t53 -33t60.5 -10.5q27 0 55.5 9.5t53 33t41 60.5t16.5 92h174q0 -84 -25.5 -146.5t-70.5 -102.5t-107.5 -59.5t-136.5 -19.5q-70 0 -131.5 17.5t-107.5 55.5t-73.5 100.5t-27.5 154.5z" />
<glyph horiz-adv-x="534" d="M123 1399q0 61 42 104t103 43t102.5 -43t41.5 -104t-41 -105.5t-103 -44.5q-61 0 -103 44t-42 106z" />
<glyph horiz-adv-x="647" d="M82 1399q0 115 70.5 172t171.5 57q45 0 89 -14.5t77.5 -43t54 -71.5t20.5 -100q0 -115 -69.5 -172.5t-171.5 -57.5t-172 56.5t-70 173.5zM215 1399q0 -63 32 -91t77 -28q41 0 74.5 28t33.5 91q0 59 -32.5 89t-75.5 30q-47 0 -78 -29t-31 -90z" />
<glyph unicode="&#xa;" horiz-adv-x="888" d="M123 1270l119 307h221l-193 -307h-147zM487 1270l119 307h221l-192 -307h-148z" />
<glyph horiz-adv-x="663" d="M164 -184q0 45 14.5 81.5t30.5 65.5q20 33 45 57h106q-8 -27 -14 -55q-6 -25 -10 -54.5t-4 -57.5q0 -49 20.5 -71t67.5 -22q25 0 52.5 6.5t51.5 14.5q29 8 58 20v-147q-29 -14 -58 -23q-27 -8 -57.5 -14t-65.5 -6q-37 0 -77.5 7t-76.5 29.5t-59.5 62.5t-23.5 106z" />
<glyph horiz-adv-x="913" d="M82 1577h229l146 -188l145 188h229l-282 -307h-184z" />
<glyph unicode="&#xd;" horiz-adv-x="593" />
<glyph horiz-adv-x="409" d="M-246 -225l738 1884h163l-737 -1884h-164z" />
<glyph horiz-adv-x="1269" d="M41 944v141h184v101q0 86 24.5 145.5t68.5 95t103.5 52t129.5 16.5q41 0 74.5 -6t58.5 -12q29 -8 53 -17v-147q-27 6 -55 14q-25 6 -57.5 11t-67.5 5q-147 0 -147 -147v-111h655v-1085h-184v944h-471v-944h-185v944h-184zM852 1372q0 51 35 87t86 36t86 -36t35 -87 t-35 -87t-86 -36t-86 36t-35 87z" />
<glyph horiz-adv-x="1259" d="M41 944v141h184v60q0 94 27 161.5t76 108.5t116.5 60.5t147.5 19.5q53 0 106.5 -14.5t96.5 -30.5q51 -20 96 -43l174 68v-1475h-184v1266q-45 20 -95 39q-41 14 -91 26t-97 12q-113 0 -150.5 -57t-37.5 -151v-50h245l-20 -141h-225v-944h-185v944h-184z" />
<glyph horiz-adv-x="880" d="M61 545v200l164 113v576h185v-447l245 170v-201l-245 -170v-614h430l-21 -172h-594v657z" />
<glyph horiz-adv-x="634" d="M61 545v200l164 113v617h185v-488l163 113v-201l-163 -113v-786h-185v657z" />
<glyph horiz-adv-x="911" d="M82 1782h229l146 -148l145 148h229l-282 -246h-184zM102 0v145l516 1117h-516v172h717v-146l-516 -1116h516v-172h-717z" />
<glyph horiz-adv-x="901" d="M76 1577h229l146 -188l145 188h229l-282 -307h-185zM102 0v133l492 795h-492v157h707v-133l-492 -794h492v-158h-707z" />
<glyph unicode=" "  horiz-adv-x="593" />
<glyph unicode="&#x09;" horiz-adv-x="593" />
<glyph unicode="&#xa0;" horiz-adv-x="593" />
<glyph unicode="!" horiz-adv-x="698" d="M205 129q0 61 42 104t103 43t102.5 -43t41.5 -104t-41 -105t-103 -44q-61 0 -103 44t-42 105zM242 1434h217l-31 -942h-156z" />
<glyph unicode="&#x22;" horiz-adv-x="1050" d="M184 1434h232l-43 -564h-148zM635 1434h231l-43 -564h-147z" />
<glyph unicode="#" horiz-adv-x="1495" d="M184 348v160h205v418h-205v159h205v349h164v-349h389v349h164v-349h205v-159h-205v-418h205v-160h-205v-348h-164v348h-389v-348h-164v348h-205zM553 508h389v418h-389v-418z" />
<glyph unicode="$" horiz-adv-x="839" d="M102 1018q0 78 19.5 135t53.5 98t79 66.5t94 38.5v241h164v-227q33 -4 64.5 -11t54.5 -13q27 -8 51 -17v-162q-29 12 -64 23q-29 10 -65.5 17t-75.5 7q-96 0 -145 -40.5t-49 -139.5q0 -49 16 -85t38.5 -60.5t47.5 -42t41 -29.5l88 -67q31 -25 70 -59t72.5 -79t57 -101 t23.5 -126q0 -88 -19.5 -151.5t-53 -107.5t-77.5 -70.5t-95 -39.5v-241h-164v225q-39 2 -77 8t-67 15q-37 8 -67 18v168q37 -14 76 -23q33 -10 72.5 -16t76.5 -6q43 0 81 8t66.5 30.5t46 62.5t17.5 106q0 51 -16.5 89t-41 66.5t-51 48t-47.5 35.5l-96 70q-23 16 -55.5 43 t-65.5 67.5t-55.5 97t-22.5 130.5z" />
<glyph unicode="%" horiz-adv-x="1931" d="M123 1075q0 109 31.5 181.5t82 116.5t111 62.5t117.5 18.5q59 0 120.5 -18.5t110.5 -63.5t80 -118t31 -179q0 -109 -31 -181.5t-79 -116.5t-109.5 -62.5t-122.5 -18.5q-59 0 -120.5 17.5t-111 60.5t-80 116t-30.5 185zM287 1075q0 -76 14 -125t37.5 -77.5t56.5 -40 t70 -11.5q33 0 64.5 9.5t57 37t41 77.5t15.5 130q0 78 -14.5 128t-38 79t-56 40t-69.5 11q-35 0 -66.5 -10t-56.5 -39t-40 -79t-15 -130zM528 -20l697 1474h180l-696 -1474h-181zM1124 358q0 109 32 181.5t82 116.5t110.5 62.5t117.5 18.5q59 0 121 -18.5t111 -63.5 t79.5 -118t30.5 -179q0 -109 -30.5 -181.5t-78.5 -116.5t-109.5 -62t-123.5 -18q-59 0 -120.5 17t-110.5 60t-80 116t-31 185zM1288 358q0 -76 14.5 -125t38 -77.5t56.5 -40t69 -11.5q33 0 65 9.5t57.5 37t41 77.5t15.5 130q0 78 -14.5 128.5t-38 79t-56.5 39.5t-70 11 q-35 0 -66.5 -10t-56 -38.5t-40 -79t-15.5 -130.5z" />
<glyph unicode="&#x26;" horiz-adv-x="1464" d="M143 381q0 98 34 169t83 119t103.5 77.5t95.5 50.5q-25 16 -56.5 43.5t-61.5 67.5t-50.5 91.5t-20.5 116.5q0 160 97.5 249t263.5 89q178 0 276.5 -84t98.5 -229q0 -70 -25 -126.5t-67 -101.5t-96 -78.5t-111 -58.5l311 -330q20 37 35.5 86.5t26 106.5t14.5 117.5 t4 115.5h184q0 -96 -12.5 -183t-32.5 -159.5t-46 -126t-52 -84.5l305 -319l-246 -20l-180 198q-33 -43 -81 -79t-105.5 -62.5t-122 -41.5t-129.5 -15q-90 0 -169 19t-138.5 66.5t-94.5 124t-35 191.5zM328 381q0 -66 20.5 -114t56 -78.5t80.5 -46t95 -15.5q49 0 97 13.5 t92 36t80 53t60 65.5l-366 401q-41 -18 -79 -42.5t-68.5 -61.5t-49 -89t-18.5 -122zM451 1116q0 -45 15 -82t38.5 -66.5t50.5 -54t51 -45.5q43 20 83 45t71 56.5t48 70.5t17 86q0 98 -46 141.5t-138 43.5q-190 0 -190 -195z" />
<glyph unicode="'" horiz-adv-x="600" d="M184 1434h232l-43 -564h-148z" />
<glyph unicode="(" horiz-adv-x="641" d="M123 676q0 88 12 176t33.5 173t47.5 165t54 151q66 164 150 318h180q-78 -145 -137 -305q-51 -139 -93 -314.5t-42 -363.5t42 -365.5t93 -314.5q59 -162 137 -303h-180q-84 150 -150 315q-29 70 -54.5 150t-47 166t-33.5 175t-12 177z" />
<glyph unicode=")" horiz-adv-x="641" d="M41 -307q76 141 135 303q51 137 94 314t43 366q0 188 -43 363t-94 315q-59 160 -135 305h180q82 -154 148 -318q27 -72 54.5 -151.5t48 -164.5t33.5 -173t13 -176t-13 -177t-33.5 -175t-48.5 -166t-54 -150q-66 -166 -148 -315h-180z" />
<glyph unicode="*" horiz-adv-x="960" d="M123 999l244 97l-244 96l94 166l207 -164l-39 260h190l-38 -260l206 164l95 -166l-244 -96l244 -97l-95 -165l-206 163l38 -260h-190l39 260l-207 -163z" />
<glyph unicode="+" horiz-adv-x="1290" d="M184 594v184h369v379h184v-379h369v-184h-369v-379h-184v379h-369z" />
<glyph unicode="," horiz-adv-x="667" d="M225 -307l37 563h221l-90 -563h-168z" />
<glyph unicode="-" horiz-adv-x="1146" d="M184 604v174h779v-174h-779z" />
<glyph unicode="." horiz-adv-x="698" d="M205 129q0 61 42 104t103 43t102.5 -43t41.5 -104t-41 -105t-103 -44q-61 0 -103 44t-42 105z" />
<glyph unicode="/" horiz-adv-x="659" d="M102 -20l287 1474h168l-287 -1474h-168z" />
<glyph unicode="0" horiz-adv-x="1187" d="M143 573q0 133 21.5 229.5t58.5 162t84 105.5t96.5 61.5t99.5 28.5t91 7q63 0 141 -20.5t146.5 -84t115.5 -180t47 -309.5q0 -195 -44 -312.5t-111.5 -180t-146 -81.5t-148.5 -19t-148.5 22.5t-146.5 87t-112 180t-44 303.5zM328 573q0 -147 27.5 -236t68.5 -136 t87 -62.5t83 -15.5q39 0 86 16.5t87 64.5t66.5 136t26.5 233q0 139 -23.5 227.5t-60.5 138.5t-85 68.5t-97 18.5t-97 -18.5t-86 -67.5t-60.5 -137t-22.5 -230z" />
<glyph unicode="1" horiz-adv-x="675" d="M20 844v160l308 143h143v-1147h-184v952z" />
<glyph unicode="2" horiz-adv-x="923" d="M82 0v176l203 191q41 37 94 84t101 102t82 119.5t34 136.5q0 104 -55.5 151.5t-153.5 47.5q-53 0 -106.5 -9.5t-96.5 -19.5q-51 -12 -98 -29v154q41 16 92 31q43 12 99.5 22t121.5 10q76 0 145.5 -19.5t122 -61.5t83 -107.5t30.5 -159.5q0 -90 -34.5 -167t-90 -144.5 t-123 -125.5t-133.5 -110l-127 -100h490l-21 -172h-659z" />
<glyph unicode="3" horiz-adv-x="962" d="M82 -127q98 4 202.5 18.5t190.5 59.5q35 18 64.5 40.5t51 54.5t33 74t11.5 99q0 72 -24.5 117t-64.5 69.5t-91.5 32.5t-104.5 8h-145v150h147q43 0 87 9t81 34t59.5 68t22.5 112q0 104 -60.5 149.5t-158.5 45.5q-49 0 -101.5 -7.5t-97.5 -17.5q-53 -10 -102 -24v149 q47 14 100 27q45 10 101.5 18t111.5 8q68 0 137.5 -16t126 -55t92 -104.5t35.5 -164.5q0 -63 -20.5 -112t-54 -86t-77.5 -61.5t-89 -39.5q39 -10 87 -29.5t90 -55t69.5 -90t27.5 -134.5q0 -147 -61.5 -240.5t-161.5 -148.5q-109 -59 -244 -80.5t-270 -25.5v149z" />
<glyph unicode="4" horiz-adv-x="1091" d="M82 94v148l176 905h207l-209 -881h369l28 492h156v-492h242l-21 -172h-221v-309l-184 -21v330h-543z" />
<glyph unicode="5" horiz-adv-x="1075" d="M184 442l21 705h686l-21 -172h-493l-17 -373q25 12 56 21q25 8 58.5 14t70.5 6q51 0 117.5 -12.5t126 -52t101.5 -116.5t42 -206q0 -139 -58.5 -236.5t-158.5 -162.5q-102 -66 -235.5 -97.5t-284.5 -38.5v154q125 4 230 28.5t179 73.5q68 45 106 107.5t38 161.5 q0 80 -18.5 128t-49.5 73.5t-71 35t-81 9.5q-53 0 -99 -11.5t-81 -25.5q-41 -16 -76 -37z" />
<glyph unicode="6" horiz-adv-x="1167" d="M143 573q0 152 40 300.5t131.5 269.5t238.5 199.5t365 89.5v-148q-115 -12 -210.5 -41t-169 -86t-125 -146t-77.5 -225q39 25 84 48q37 16 85 31.5t99 15.5q70 0 143.5 -18.5t135 -65.5t101.5 -129t40 -211q0 -154 -45 -248t-110.5 -144.5t-143.5 -67.5t-141 -17 q-80 0 -159 24.5t-141.5 90t-101.5 181t-39 297.5zM328 553q0 -135 21.5 -220t57 -132t82 -63.5t95.5 -16.5q47 0 93 11t82 46t58.5 101.5t22.5 177.5q0 158 -65.5 220t-190.5 62q-47 0 -92.5 -12t-79.5 -27q-41 -16 -78 -36q-2 -20 -4 -41q-2 -16 -2 -36v-34z" />
<glyph unicode="7" horiz-adv-x="839" d="M41 975v172h758v-152q-115 -160 -189.5 -293t-119 -267t-61.5 -284.5t-17 -345.5l-185 -20q0 217 22.5 381t72 301t125 258t184.5 250h-590z" />
<glyph unicode="8" horiz-adv-x="1200" d="M143 350q0 63 21.5 118.5t56.5 100.5t78 79t84 54q-35 20 -71 47t-65.5 64t-48 86t-18.5 119q0 106 41 175t103.5 108.5t136.5 55t139 15.5q63 0 137 -14.5t136.5 -54t104.5 -108.5t42 -175q0 -61 -20.5 -110.5t-53.5 -87.5t-70.5 -66.5t-74.5 -46.5q53 -23 99 -52.5 t81 -71.5t55.5 -98.5t20.5 -130.5q0 -111 -43 -183.5t-109.5 -115.5t-147.5 -60t-157 -17q-90 0 -172 16t-145.5 57t-101.5 114t-38 183zM328 360q0 -72 22.5 -116.5t61.5 -72.5t87 -38t101 -10q55 0 105.5 11t87 39t58 73.5t21.5 113.5q0 63 -20.5 104.5t-54 69t-76.5 44 t-86 30.5l-141 47q-29 -25 -58.5 -51t-53.5 -60t-39 -78t-15 -106zM365 1014q0 -43 15 -78t39.5 -60.5t55.5 -43t62 -27.5l137 -49q27 20 55.5 43.5t52 54.5t39 70t15.5 90q0 70 -20.5 111.5t-54.5 65t-76 31t-85 7.5q-47 0 -90 -8.5t-75 -32t-51 -65.5t-19 -109z" />
<glyph unicode="9" horiz-adv-x="1171" d="M143 692q0 109 30 197t87 149.5t140 95t188 33.5q123 0 207 -47t136 -131t74.5 -197.5t22.5 -246.5q0 -213 -66.5 -364.5t-173 -251t-238.5 -149.5t-263 -59v150q225 31 367.5 148.5t185.5 347.5q-16 -12 -44 -30t-64 -33t-79 -25.5t-92 -10.5q-92 0 -169 29t-132 82 t-86 132t-31 181zM328 715q0 -135 57 -221t195 -86q72 0 143.5 30.5t124.5 65.5q4 100 -6.5 195.5t-40 169t-81.5 117.5t-132 44q-68 0 -117 -23.5t-81 -65.5t-47 -100.5t-15 -125.5z" />
<glyph unicode=":" horiz-adv-x="698" d="M205 129q0 61 42 104t103 43t102.5 -43t41.5 -104t-41 -105t-103 -44q-61 0 -103 44t-42 105zM205 958q0 61 42 104.5t103 43.5t102.5 -43.5t41.5 -104.5t-41 -105t-103 -44q-61 0 -103 44t-42 105z" />
<glyph unicode=";" horiz-adv-x="698" d="M205 958q0 61 42 104.5t103 43.5t102.5 -43.5t41.5 -104.5t-41 -105t-103 -44q-61 0 -103 44t-42 105zM217 -307l37 563h221l-90 -563h-168z" />
<glyph unicode="&#x3c;" horiz-adv-x="1290" d="M184 604v164l922 420v-205l-723 -293l723 -301v-205z" />
<glyph unicode="=" horiz-adv-x="1290" d="M184 389v184h922v-184h-922zM184 799v184h922v-184h-922z" />
<glyph unicode="&#x3e;" horiz-adv-x="1290" d="M184 184v205l723 301l-723 293v205l922 -420v-164z" />
<glyph unicode="?" horiz-adv-x="866" d="M123 1239v152q37 16 80 30q37 12 86 22.5t104 10.5q57 0 115.5 -11t107 -44t78 -92.5t29.5 -155.5q0 -57 -14.5 -100t-38 -79t-52 -64.5l-57.5 -57.5q-41 -41 -72.5 -95.5t-31.5 -144.5q0 -27 2 -55.5t8 -62.5h-172q-4 29 -6 56t-2 52q0 68 14 121t37.5 94t51.5 74t54 61 q41 41 70 85t29 112q0 49 -12.5 77.5t-35 44t-54 20.5t-68.5 5q-45 0 -90 -9t-80 -19q-41 -12 -80 -27zM233 129q0 61 42 104t104 43q61 0 102 -43t41 -104t-41 -105t-102 -44t-103.5 44t-42.5 105z" />
<glyph unicode="@" horiz-adv-x="2086" d="M164 463q0 231 76.5 415.5t205.5 312.5t300.5 195.5t359.5 67.5q178 0 327.5 -52t259 -152.5t170 -247t60.5 -334.5q0 -160 -37 -281t-98.5 -201t-142 -119.5t-168.5 -39.5t-137.5 36.5t-71.5 81.5q-27 53 -33 121q-33 -70 -82 -123q-41 -47 -103.5 -85t-146.5 -38 q-55 0 -105 16.5t-90 56.5t-63.5 109.5t-23.5 178.5q0 131 35.5 247.5t99 204t149.5 137.5t189 50q53 0 91 -12.5t64 -26.5q31 -16 51 -37l29 60h141l-98 -592q-16 -104 10.5 -167t98.5 -63q51 0 99 24.5t86 81t60.5 149.5t22.5 231q0 162 -50 280.5t-137 196.5t-205 116.5 t-251 38.5q-154 0 -293 -57t-244.5 -165.5t-168 -263.5t-62.5 -351q0 -207 59.5 -345t150.5 -221t201.5 -118t213.5 -35q76 0 147.5 6t126.5 14q66 8 123 23v-162q-61 -10 -129 -18q-57 -6 -128 -11.5t-140 -5.5q-147 0 -291 44t-256.5 146.5t-182 269.5t-69.5 413zM803 385 q0 -127 35.5 -174t89.5 -47q55 0 104 41t84 92q41 57 76 133l70 401q-18 12 -41 23q-20 10 -49 17.5t-68 7.5q-61 0 -115.5 -35t-95.5 -99.5t-65.5 -155.5t-24.5 -204z" />
<glyph unicode="A" d="M41 0l395 1434h234l395 -1434h-201l-76 319h-471l-75 -319h-201zM352 479h402l-127 520q-12 51 -25.5 107.5t-23.5 103.5q-12 53 -25 107q-12 -53 -25 -107q-10 -47 -23 -102t-26 -109z" />
<glyph unicode="B" horiz-adv-x="1187" d="M205 0v1434h260q131 0 231.5 -13.5t169 -53.5t103.5 -113.5t35 -192.5q0 -68 -21.5 -122t-55.5 -93t-79 -64.5t-90 -36.5q57 -8 109.5 -29.5t91 -60.5t62 -99t23.5 -146q0 -141 -40.5 -223.5t-117.5 -124.5t-188.5 -52t-253.5 -10h-239zM389 150h90q96 0 168 8t119 35.5 t70.5 79t23.5 137.5q0 82 -27.5 132t-77.5 77.5t-124 37t-166 9.5h-76v-516zM389 809h76q94 0 161.5 9t110.5 37t62.5 75t19.5 125q0 74 -21.5 119t-65.5 69.5t-111.5 32.5t-159.5 8h-72v-475z" />
<glyph unicode="C" horiz-adv-x="921" d="M143 717q0 166 23.5 284.5t63.5 200.5t91.5 132t105.5 77t108.5 35t99.5 8q47 0 87 -7t71 -15q37 -8 67 -21v-156q-39 12 -76 21q-35 8 -73.5 14t-79.5 6q-53 0 -107.5 -18t-97.5 -79.5t-70.5 -176.5t-27.5 -305q0 -176 22.5 -288t61.5 -176.5t90 -88t108 -23.5 q39 0 83 6.5t81 14.5q43 8 86 22v-164q-39 -12 -80 -20q-35 -8 -79 -14t-91 -6q-49 0 -103 8t-106.5 33.5t-99.5 74.5t-82 131t-55.5 202t-20.5 288z" />
<glyph unicode="D" horiz-adv-x="1208" d="M205 0v1434h239q137 0 251 -22.5t196 -97.5t128 -216t46 -381q0 -238 -48 -379t-134 -216t-204 -98.5t-255 -23.5h-219zM389 162h68q98 0 177 17.5t133 74.5t84 168t30 295q0 190 -29 300.5t-83 167t-129 72t-167 15.5h-84v-1110z" />
<glyph unicode="E" horiz-adv-x="983" d="M205 0v1434h696v-172h-512v-402h471v-160h-471v-528h512v-172h-696z" />
<glyph unicode="F" horiz-adv-x="942" d="M205 0v1434h696l-20 -174h-492v-400h471v-160h-471v-700h-184z" />
<glyph unicode="G" horiz-adv-x="1259" d="M143 717q0 242 59.5 387t147.5 223t188.5 102.5t184.5 24.5q66 0 120 -10t95 -23q47 -14 86 -32v-160q-43 18 -92 33q-41 12 -95.5 22t-113.5 10q-70 0 -140.5 -21.5t-127 -84t-92 -175t-35.5 -296.5t25.5 -297t67.5 -174.5t97 -83t117 -21.5q41 0 85 5.5t79 13.5 q41 8 82 18v524h-226v158h410v-799q-33 -10 -82 -24t-107.5 -26.5t-122 -21.5t-124.5 -9q-92 0 -179.5 23.5t-155 101t-109.5 223t-42 389.5z" />
<glyph unicode="H" horiz-adv-x="1290" d="M205 0v1434h184v-574h512v574h184v-1434h-184v700h-512v-700h-184z" />
<glyph unicode="I" horiz-adv-x="598" d="M205 0v1434h188v-1434h-188z" />
<glyph unicode="J" horiz-adv-x="686" d="M0 14v156q33 -8 68 -16q29 -6 61.5 -10.5t60.5 -4.5q66 0 91.5 32t25.5 118v1145h185v-1178q0 -80 -20.5 -132t-56.5 -85t-87.5 -46t-112.5 -13q-37 0 -76 5t-69 11q-37 8 -70 18z" />
<glyph unicode="K" horiz-adv-x="1116" d="M205 0v1434h184v-1434h-184zM451 778l391 656h223l-424 -648l444 -786l-215 -20z" />
<glyph unicode="L" horiz-adv-x="860" d="M205 0v1434h184v-1262h430l-20 -172h-594z" />
<glyph unicode="M" horiz-adv-x="1576" d="M195 0l49 1434h151l393 -871l396 871h149l49 -1434h-182l-14 750q-2 72 -2 137t2 119q2 61 4 114q-20 -53 -43 -108q-20 -47 -45 -105.5t-51 -115.5l-263 -551l-264 551q-29 59 -53.5 117.5t-42.5 105.5q-23 53 -41 104q2 -51 4 -110q2 -51 2 -119t-2 -139l-14 -750h-182 z" />
<glyph unicode="N" horiz-adv-x="1269" d="M205 0v1434h182l361 -750q43 -90 73.5 -164t50.5 -127q23 -63 39 -110q-8 82 -16 163q-6 70 -10 147t-4 136v705h184v-1434h-162l-379 780q-35 72 -64.5 141.5t-51.5 122.5q-25 63 -48 121q6 -80 15 -157q4 -66 9 -140.5t5 -132.5v-735h-184z" />
<glyph unicode="O" horiz-adv-x="1167" d="M123 717q0 172 22.5 295t60.5 204.5t86 129t99 72t101.5 30.5t91.5 6t91 -7t101 -31.5t99.5 -72t86 -129t60 -203.5t22.5 -294q0 -174 -21.5 -297t-57 -205t-83.5 -129t-99.5 -70.5t-102.5 -29.5t-96 -6t-96.5 6t-102.5 30.5t-99 71.5t-84 129t-57.5 204t-21.5 296z M307 717q0 -188 25.5 -304t65.5 -180.5t89.5 -86t96.5 -21.5t96 22.5t89 87t65.5 180.5t25.5 302q0 178 -23.5 293.5t-61.5 181t-88 91.5t-103 26t-103.5 -23.5t-89.5 -89.5t-61.5 -180.5t-22.5 -298.5z" />
<glyph unicode="P" horiz-adv-x="1085" d="M205 0v1434h260q125 0 225.5 -19.5t170 -74t106.5 -148.5t37 -244q0 -141 -40 -235.5t-117 -151.5t-192.5 -81.5t-265.5 -24.5v-455h-184zM389 596q119 2 201 19.5t133 56.5t73.5 104.5t22.5 165.5q0 119 -24.5 186.5t-71.5 99.5t-114.5 39t-155.5 7h-64v-678z" />
<glyph unicode="Q" horiz-adv-x="1167" d="M123 717q0 172 22.5 295t60.5 204.5t86 129t99 72t101.5 30.5t91.5 6t91 -7t101 -31.5t99.5 -72t86 -129t60 -203.5t22.5 -294q0 -225 -34.5 -364.5t-90 -219.5t-123 -110.5t-130.5 -38.5l194 -373h-246l-112 373q-66 8 -132.5 39.5t-121.5 111.5t-90 219.5t-35 362.5z M307 717q0 -188 24.5 -305t64.5 -181.5t89.5 -87t98.5 -22.5q47 0 96 23.5t89 89t65.5 181.5t25.5 302q0 178 -23.5 293.5t-61.5 181t-88 91.5t-103 26t-103.5 -23.5t-89.5 -89.5t-61.5 -180.5t-22.5 -298.5z" />
<glyph unicode="R" horiz-adv-x="1126" d="M205 0v1434h301q104 0 198.5 -13.5t165 -56.5t112.5 -123t42 -211q0 -84 -20.5 -147.5t-58.5 -109.5t-89 -77.5t-113 -50.5q47 -41 80 -96t64 -137l157 -412h-221l-104 326q-29 86 -63.5 160.5t-86.5 121.5q-45 -6 -89 -8t-91 -6v-594h-184zM389 743q125 4 211 19.5 t139.5 48.5t77 86t23.5 133q0 86 -24.5 133t-72 70.5t-116 29t-156.5 5.5h-82v-525z" />
<glyph unicode="S" horiz-adv-x="921" d="M102 1079q0 109 39 180.5t98.5 114.5t133 61.5t145.5 18.5q53 0 99.5 -7t78.5 -17q37 -10 68 -23v-162q-39 14 -80 25q-35 10 -79 18t-87 8q-106 0 -170.5 -44t-64.5 -156q0 -80 48 -131.5t115 -98.5l115 -80q49 -35 95 -71.5t82 -83.5t58.5 -107.5t22.5 -138.5 q0 -129 -35.5 -209t-96 -123t-138.5 -58t-162 -15q-53 0 -100 6t-86 14q-45 8 -84 23v167q45 -14 92 -24q41 -10 87 -17.5t87 -7.5q51 0 97 9.5t80 35t54.5 70.5t20.5 115q0 47 -12.5 84t-35 66.5t-53 54t-65.5 49.5l-147 100q-43 31 -83 65.5t-71 77.5t-48.5 95.5 t-17.5 115.5z" />
<glyph unicode="T" horiz-adv-x="839" d="M0 1260v174h881l-21 -174h-328v-1260h-184v1260h-348z" />
<glyph unicode="U" horiz-adv-x="1220" d="M195 389v1045h184v-1076q0 -121 56.5 -171t174.5 -50q111 0 171.5 49.5t60.5 171.5v1076h184v-1045q0 -211 -102.5 -310t-313.5 -99q-219 0 -317 96t-98 313z" />
<glyph unicode="V" horiz-adv-x="1024" d="M20 1434h216l204 -963q10 -55 23.5 -121.5t23.5 -124.5q12 -68 25 -133q12 66 25 133q10 57 22 124t25 122l204 963h216l-377 -1434h-230z" />
<glyph unicode="W" horiz-adv-x="1638" d="M41 1434h213l129 -969q6 -47 13 -109.5t14 -119.5q8 -68 16 -138q12 70 23 138q10 57 20 119.5t20 109.5l205 969h252l201 -969q10 -47 20.5 -109.5t20.5 -119.5q10 -68 22 -138q8 70 17 138q8 57 16 119.5t14 109.5l127 969h213l-270 -1434h-240l-202 975 q-12 53 -23.5 117.5t-21.5 117.5q-10 63 -21 127q-12 -63 -22 -127q-10 -53 -22.5 -117.5t-22.5 -117.5l-205 -975h-238z" />
<glyph unicode="X" horiz-adv-x="1024" d="M20 0l377 745l-356 689h231l240 -580l240 580h231l-354 -689l375 -745h-230l-262 625l-266 -625h-226z" />
<glyph unicode="Y" horiz-adv-x="983" d="M0 1434h221l271 -697l270 697h221l-399 -834v-600h-185v600z" />
<glyph unicode="Z" horiz-adv-x="911" d="M102 0v145l516 1117h-516v172h717v-146l-516 -1116h516v-172h-717z" />
<glyph unicode="[" horiz-adv-x="716" d="M205 -307v1966h491v-166h-307v-1634h307v-166h-491z" />
<glyph unicode="\" horiz-adv-x="659" d="M102 1454h168l287 -1474h-168z" />
<glyph unicode="]" horiz-adv-x="716" d="M20 -141h308v1634h-308v166h492v-1966h-492v166z" />
<glyph unicode="^" horiz-adv-x="1036" d="M82 860l336 717h200l336 -717h-209l-227 561l-227 -561h-209z" />
<glyph unicode="_" horiz-adv-x="1126" d="M0 -205h1126v-184h-1126v184z" />
<glyph unicode="`" horiz-adv-x="606" d="M82 1577h242l200 -307h-188z" />
<glyph unicode="a" d="M133 319q0 111 39 179.5t99.5 106.5t134 50.5t143.5 12.5h178v118q0 55 -14.5 88t-41 50.5t-64.5 21.5t-85 4q-37 0 -82 -7t-88 -16t-77.5 -18.5t-49.5 -13.5v156q45 14 99 26q45 10 103 19.5t124 9.5q74 0 139.5 -13.5t114.5 -51t77.5 -106.5t28.5 -181v-754h-157 l-21 127q-31 -41 -71 -74q-35 -29 -87.5 -51t-123.5 -22q-49 0 -105.5 12t-103.5 48t-78 102.5t-31 176.5zM317 336q0 -68 14.5 -109t38 -62.5t55.5 -28.5t67 -7q47 0 89 17.5t74 39.5q37 25 72 58v311l-133 -2q-63 0 -114.5 -9t-87.5 -33t-55.5 -66t-19.5 -109z" />
<glyph unicode="b" horiz-adv-x="1187" d="M205 43v1432h184v-496q31 35 72 63q35 23 84 43.5t110 20.5q47 0 114 -14.5t128 -69.5t104 -166.5t43 -306.5q0 -197 -53 -310.5t-129 -171t-156.5 -72.5t-136.5 -15q-76 0 -141.5 9t-114.5 21q-57 14 -108 33zM389 147q25 -6 53 -10q25 -4 59 -7t74 -3q43 0 92.5 13.5 t92.5 57.5t71.5 128t28.5 223q0 150 -23.5 232.5t-59.5 120.5t-79 45t-84 7q-35 0 -67.5 -10t-61 -24.5t-53 -31t-43.5 -30.5v-711z" />
<glyph unicode="c" horiz-adv-x="880" d="M143 537q0 193 50.5 306t123 171.5t152.5 75t141 16.5q43 0 81 -6t67 -15q33 -8 61 -18v-158q-29 10 -63 19q-29 8 -66 14t-74 6q-49 0 -101 -11t-93 -52t-67.5 -124t-26.5 -224q0 -129 24.5 -207t63.5 -120t88 -54.5t96 -12.5q37 0 75 6.5t70 14.5q37 8 74 22v-166 q-31 -12 -67 -20q-31 -8 -71 -14t-81 -6q-66 0 -144.5 15t-148 71.5t-117 167t-47.5 303.5z" />
<glyph unicode="d" horiz-adv-x="1208" d="M143 543q0 188 49.5 299.5t119 170t145 76t127.5 17.5q51 0 90 -12.5t68.5 -28.5t48 -32.5t28.5 -26.5v469h185v-1475h-140l-22 117q-14 -16 -40 -40t-63 -45.5t-86 -36.5t-110 -15q-39 0 -84 7t-89 29.5t-85 60.5t-73 101.5t-50.5 152.5t-18.5 212zM328 543 q0 -143 23.5 -225t61.5 -124t83 -52.5t88 -10.5q39 0 76.5 11.5t68.5 27.5t54.5 33.5t35.5 27.5v641q-10 8 -30.5 21.5t-48 27t-62.5 22.5t-74 9q-47 0 -96 -13t-89 -56t-65.5 -124t-25.5 -216z" />
<glyph unicode="e" horiz-adv-x="1075" d="M143 543q0 172 35 280.5t92.5 172t131 87t151.5 23.5q72 0 143.5 -20.5t129.5 -81.5q58 -60 90 -170q27 -93 27 -237q0 -26 -1 -54l-2 -58h-614q2 -131 31.5 -200.5t71.5 -101t89 -37t86 -5.5t88 8.5t92 18.5q51 10 101 27v-164q-41 -16 -88 -27q-41 -10 -90.5 -17 t-102.5 -7q-80 0 -162 14t-148.5 71.5t-108.5 170t-42 307.5zM328 612h432q0 115 -16.5 184.5t-45 107.5t-66.5 50.5t-79 12.5q-49 0 -90 -14.5t-69.5 -54.5t-46 -108.5t-19.5 -177.5z" />
<glyph unicode="f" horiz-adv-x="675" d="M41 944v141h184v101q0 86 24.5 145.5t68.5 95t103.5 52t129.5 16.5q41 0 79 -6t66 -14q33 -8 62 -21v-147q-31 10 -64 18q-29 6 -64.5 12t-72.5 6q-147 0 -147 -147v-111h245l-20 -141h-225v-944h-185v944h-184z" />
<glyph unicode="g" horiz-adv-x="1071" d="M123 -121q0 63 35 127t88 98q-45 27 -63.5 66t-18.5 86q0 59 40 108.5t85 90.5q-59 47 -94 112.5t-35 173.5q0 190 103.5 277.5t277.5 87.5q31 0 53 -3t43.5 -7t45.5 -7.5t56 -3.5h291v-139h-188q35 -45 56.5 -92t21.5 -113q0 -182 -102.5 -274t-276.5 -92q-86 0 -162 28 q-29 -31 -46.5 -55t-17.5 -49q0 -47 26 -59.5t97 -16.5l252 -12q76 -4 135.5 -18.5t100.5 -46t61.5 -82t20.5 -125.5q0 -100 -36 -168t-100.5 -108t-155.5 -56.5t-200 -16.5q-86 0 -158.5 16.5t-125 52.5t-81 90t-28.5 130zM289 -80q0 -88 53 -144.5t174 -56.5 q176 0 248 53.5t72 149.5q0 76 -38 100.5t-128 28.5l-279 17q-12 0 -24.5 1t-22.5 3q-23 -35 -39 -70t-16 -82zM338 741q0 -109 50 -174t153 -65q106 0 154 65t48 174q0 111 -50 174.5t-152 63.5q-111 0 -157 -59.5t-46 -178.5z" />
<glyph unicode="h" horiz-adv-x="1239" d="M205 0v1475h184v-521q47 41 103 76q47 29 108.5 52.5t132.5 23.5q68 0 125 -15.5t98 -52.5t64.5 -99t23.5 -157v-782h-184v788q0 51 -13 82t-37 45.5t-55.5 18.5t-68.5 4q-53 0 -105.5 -17.5t-95.5 -37.5q-51 -25 -96 -56v-827h-184z" />
<glyph unicode="i" horiz-adv-x="593" d="M176 1372q0 51 35 87t86 36t86 -36t35 -87t-35 -87t-86 -36t-86 36t-35 87zM205 0v1085h184v-1085h-184z" />
<glyph unicode="j" horiz-adv-x="593" d="M-82 -221q35 -8 68 -15q29 -4 58.5 -8t51.5 -4q59 0 84 27.5t25 99.5v1206h184v-1210q0 -84 -20.5 -138t-56.5 -87t-86 -46.5t-107 -13.5q-33 0 -69 4.5t-64 10.5q-35 8 -68 16v158zM176 1372q0 51 35 87t86 36t86 -36t35 -87t-35 -87t-86 -36t-86 36t-35 87z" />
<glyph unicode="k" horiz-adv-x="1054" d="M205 0v1475h184v-1475h-184zM432 625l324 460h227l-362 -456l403 -629l-215 -20z" />
<glyph unicode="l" horiz-adv-x="573" d="M195 0v1475h184v-1475h-184z" />
<glyph unicode="m" horiz-adv-x="1771" d="M205 0v1085h137l41 -131q43 41 96 76q45 29 101.5 52.5t121.5 23.5q96 0 170 -41t91 -121q45 43 98 80q47 31 107.5 56.5t127.5 25.5q63 0 115.5 -15.5t89.5 -52.5t56.5 -99t19.5 -157v-782h-184v791q0 49 -11.5 78.5t-30 45t-45 20.5t-57.5 5q-45 0 -92 -16.5t-86 -36.5 q-45 -23 -88 -53v-834h-184v791q0 49 -11.5 78.5t-30 45t-45 20.5t-57.5 5q-51 0 -99 -16.5t-85 -36.5q-43 -23 -82 -53v-834h-184z" />
<glyph unicode="n" horiz-adv-x="1239" d="M205 0v1085h137l41 -133q49 41 104 76q47 29 111 53.5t135 24.5q68 0 125 -15.5t98 -52.5t64.5 -99t23.5 -157v-782h-184v791q0 55 -15.5 84.5t-41 44t-56 17.5t-61.5 3q-57 0 -110.5 -17.5t-94.5 -37.5q-49 -23 -92 -54v-831h-184z" />
<glyph unicode="o" horiz-adv-x="1134" d="M123 543q0 182 42 292.5t107.5 171t144.5 80t150 19.5q72 0 151 -17.5t144.5 -77t107.5 -171t42 -297.5q0 -190 -42 -302t-107.5 -170.5t-143.5 -74.5t-152 -16t-151.5 18t-143 76.5t-107.5 170t-42 298.5zM307 543q0 -147 27.5 -231.5t67.5 -126.5t85 -52t80 -10t80 11 t85 54t67.5 126.5t27.5 228.5q0 150 -24.5 234.5t-63.5 125.5t-84 51.5t-88 10.5t-88 -10.5t-84 -53.5t-63.5 -127t-24.5 -231z" />
<glyph unicode="p" horiz-adv-x="1187" d="M205 -389v1474h141l27 -118q20 25 46.5 50t61.5 44.5t78 32t96 12.5q57 0 126 -17.5t127.5 -76t97 -168t38.5 -295.5q0 -131 -24.5 -224.5t-63 -156t-87 -100t-97.5 -57t-93 -25.5t-75 -6q-76 0 -133 21.5t-82 37.5v-428h-184zM389 168q23 -8 76 -24.5t125 -16.5 q47 0 95 15.5t87 61.5t63.5 128t24.5 217q0 129 -18.5 209t-49 123t-71.5 58t-86 15q-84 0 -149.5 -33.5t-96.5 -62.5v-690z" />
<glyph unicode="q" horiz-adv-x="1208" d="M143 549q0 127 25 218t63.5 152.5t87 98.5t97.5 56.5t93 25.5t75 6q98 0 162.5 -41t93.5 -86l30 106h134v-1474h-185v459q-35 -27 -95 -58.5t-140 -31.5q-33 0 -79 4t-95.5 21.5t-96.5 53t-85 99t-61.5 159t-23.5 232.5zM328 549q0 -141 25.5 -224t66.5 -127t89 -56.5 t95 -12.5q33 0 65.5 8t61.5 19.5t51.5 24t36.5 20.5v655q-10 10 -29.5 26.5t-47 33t-62.5 27.5t-76 11q-51 0 -100 -13t-88 -55t-63.5 -122t-24.5 -215z" />
<glyph unicode="r" horiz-adv-x="733" d="M205 0v1085h141l27 -143q20 45 53 82q29 31 71 56.5t105 25.5q14 0 29.5 -2t30.5 -4q16 -4 30 -6v-201q-16 4 -39 10q-18 4 -42.5 7t-51.5 3q-39 0 -69.5 -13t-53.5 -30q-27 -20 -47 -43v-827h-184z" />
<glyph unicode="s" horiz-adv-x="847" d="M102 803q0 147 98.5 225t258.5 78q53 0 98 -7t78 -16q37 -8 70 -20v-154q-39 12 -78 21q-35 8 -78 15t-84 7q-78 0 -133.5 -28.5t-55.5 -110.5q0 -43 12.5 -69.5t33 -43t43 -26.5t45.5 -19l106 -43q43 -16 84 -39.5t74 -60.5t52 -89t19 -126q0 -100 -33.5 -162.5 t-88 -96.5t-124 -46t-141.5 -12q-43 0 -86 6t-77 14q-39 8 -76 23v163q45 -14 88 -24q37 -10 78 -17.5t73 -7.5q39 0 78 6.5t67.5 23.5t47 48t18.5 82q0 43 -11 70.5t-30.5 46t-46 32t-59.5 25.5l-107 43q-29 12 -64.5 31.5t-69.5 53.5t-56.5 83t-22.5 121z" />
<glyph unicode="t" horiz-adv-x="716" d="M41 944v141h184l8 246l177 82v-328h245l-20 -141h-225v-698q0 -72 24.5 -91.5t77.5 -19.5q25 0 56.5 5t60.5 14q33 8 67 18v-156q-33 -10 -69 -18q-31 -8 -72 -13t-84 -5q-59 0 -104 12t-77 44t-48.5 84t-16.5 132v692h-184z" />
<glyph unicode="u" horiz-adv-x="1198" d="M195 297v788h184v-747q0 -98 30.5 -145.5t122.5 -47.5q49 0 98.5 17.5t90.5 40.5q47 25 88 57v825h184v-1085h-149l-23 141q-43 -45 -96 -82q-45 -31 -105.5 -55t-127.5 -24q-66 0 -120.5 16t-94 53t-61 97.5t-21.5 150.5z" />
<glyph unicode="v" horiz-adv-x="1003" d="M31 1085h211l190 -694q14 -53 26.5 -107.5t22.5 -97.5q10 -53 21 -98q10 47 20 98q10 43 21.5 97.5t27.5 107.5l191 694h211l-363 -1085h-219z" />
<glyph unicode="w" horiz-adv-x="1597" d="M51 1085h209l111 -622q10 -53 19 -117.5t20 -122.5q10 -68 20 -135q12 66 27 133q12 57 26.5 122t30.5 120l168 622h233l168 -622q16 -59 30.5 -126t27.5 -122q14 -66 26 -127q8 61 19 127q8 55 19.5 121.5t21.5 126.5l114 622h205l-264 -1085h-233l-160 578 q-18 66 -34.5 136t-29.5 130q-14 68 -26 131q-14 -66 -29 -133q-12 -59 -29.5 -128t-33.5 -134l-160 -580h-232z" />
<glyph unicode="x" horiz-adv-x="1024" d="M20 0l386 584l-365 501h244l227 -389l229 389h242l-365 -501l386 -584h-236l-256 451l-256 -451h-236z" />
<glyph unicode="y" horiz-adv-x="972" d="M31 1085h221l268 -878l213 878h209l-354 -1208q-29 -96 -65 -152.5t-78 -86t-86 -39t-87 -9.5q-35 0 -68.5 4.5t-60.5 10.5q-33 8 -59 16v152q35 -8 70 -15q29 -6 59.5 -10t52.5 -4q25 0 47.5 8t42 30.5t37 62.5t31.5 102l12 55z" />
<glyph unicode="z" horiz-adv-x="901" d="M102 0v133l492 795h-492v157h707v-133l-492 -794h492v-158h-707z" />
<glyph unicode="{" horiz-adv-x="702" d="M41 596v164q53 8 94 37q35 23 65.5 69.5t30.5 126.5v250q0 223 105.5 319.5t310.5 96.5h35v-160h-35q-125 0 -178 -60.5t-53 -201.5v-264q0 -59 -17.5 -108.5t-48.5 -87.5t-70.5 -63.5t-82.5 -37.5q94 -23 156.5 -96.5t62.5 -196.5v-268q0 -141 53 -201.5t178 -60.5h35 v-160h-35q-205 0 -310.5 96t-105.5 320v253q0 80 -30.5 127.5t-65.5 69.5q-41 27 -94 37z" />
<glyph unicode="|" horiz-adv-x="593" d="M205 -225v1884h184v-1884h-184z" />
<glyph unicode="}" horiz-adv-x="702" d="M20 -147h35q125 0 178.5 60t53.5 202v268q0 123 62.5 196.5t156.5 96.5q-43 12 -83 37.5t-70.5 63.5t-48 87t-17.5 109v264q0 141 -53.5 201.5t-178.5 60.5h-35v160h35q205 0 310.5 -96.5t105.5 -319.5v-250q0 -80 29.5 -126t64.5 -70q41 -29 97 -37v-164q-55 -8 -97 -35 q-35 -23 -64.5 -70t-29.5 -129v-253q0 -223 -105.5 -319.5t-310.5 -96.5h-35v160z" />
<glyph unicode="~" horiz-adv-x="1474" d="M184 594v184q66 43 134.5 61.5t138.5 18.5q68 0 136.5 -16.5t137.5 -44.5l68 -27q80 -31 138 -51.5t116 -20.5q51 0 106 17.5t131 60.5v-182q-59 -43 -119.5 -60.5t-121.5 -17.5q-78 0 -157 22.5t-157 57.5l-65 29q-111 49 -215 49q-135 0 -271 -80z" />
<glyph unicode="&#xa1;" horiz-adv-x="698" d="M205 956q0 61 41 105.5t102 44.5t103.5 -44.5t42.5 -105.5t-42 -104t-104 -43q-61 0 -102 43t-41 104zM240 -348l30 942h156l31 -942h-217z" />
<glyph unicode="&#xa2;" horiz-adv-x="880" d="M143 537q0 145 30 244.5t77 163t105.5 97t115.5 48.5v221h164v-205q39 -2 72.5 -8t58.5 -13q29 -8 53 -18v-158q-29 10 -63 19q-29 8 -66 14t-74 6q-49 0 -101 -11t-93 -52t-67.5 -124t-26.5 -224q0 -129 24.5 -207t63.5 -120t88 -54.5t96 -12.5q37 0 75 6.5t70 14.5 q37 8 74 22v-166q-27 -8 -55 -16q-27 -6 -59.5 -13t-69.5 -9v-207h-164v217q-59 12 -117.5 43t-105.5 92t-76 160.5t-29 249.5z" />
<glyph unicode="&#xa3;" horiz-adv-x="1021" d="M82 0v166h205v510h-205v155h205v173q0 109 31.5 179t83 112t116 59.5t129.5 17.5q72 0 127 -9t92 -20q43 -12 74 -28v-162q-41 16 -88 29q-41 10 -90 19t-103 9q-33 0 -67.5 -5t-62 -25.5t-45 -62.5t-17.5 -113v-173h371l-21 -155h-350v-510h473v-166h-858z" />
<glyph unicode="&#xa4;" horiz-adv-x="1085" d="M41 436l20 160h207q-2 18 -2 37.5v42.5q0 29 1 56.5t3 53.5h-229l20 160h234q33 141 97.5 225t139 129.5t150.5 58.5t133 13q45 0 86 -7t74 -15q37 -8 69 -21v-155q-39 12 -75 20q-35 8 -74 14t-80 6q-49 0 -99 -8t-96.5 -35.5t-84 -81t-62.5 -143.5h469l-20 -160h-467 q-2 -27 -3 -54t-1 -56v-42.5t2 -37.5h489l-20 -160h-455q18 -92 53 -149.5t80 -90t95 -44t100 -11.5q39 0 83 6.5t80 14.5q43 8 86 22v-164q-39 -12 -79 -20q-35 -8 -79 -14t-91 -6q-68 0 -147 12t-150.5 59t-129 137.5t-83.5 247.5h-244z" />
<glyph unicode="&#xa5;" horiz-adv-x="1024" d="M53 1352h219l240 -615l240 615h219l-293 -588h233v-172h-307v-178h307v-172h-307v-242h-184v242h-307v172h307v178h-307v172h233z" />
<glyph unicode="&#xa6;" horiz-adv-x="593" d="M205 -225v798h184v-798h-184zM205 860v799h184v-799h-184z" />
<glyph unicode="&#xa7;" horiz-adv-x="921" d="M102 582q0 76 46.5 132t101.5 97q-18 14 -37.5 34.5t-36 48.5t-27 65.5t-10.5 89.5q0 160 102.5 241.5t274.5 81.5q66 0 119 -10t90 -23q43 -14 78 -30v-154q-41 16 -88 31q-41 12 -90.5 22.5t-102.5 10.5q-98 0 -150.5 -34t-52.5 -126q0 -43 14.5 -72t38 -47t51.5 -30.5 t56 -22.5l127 -49q43 -16 81 -37t67.5 -50.5t47 -70.5t17.5 -98q0 -80 -46 -139.5t-99 -96.5q41 -33 74.5 -86t33.5 -145q0 -86 -28.5 -146.5t-78.5 -100.5t-120 -58.5t-149 -18.5q-57 0 -107.5 7t-91.5 18q-47 10 -88 24v162q49 -18 98 -31q41 -10 90 -19t92 -9 q86 0 144.5 34.5t58.5 126.5q0 43 -12 71t-33.5 46.5t-49.5 30.5t-58 22l-134 48q-43 14 -80.5 35.5t-67.5 52t-47.5 72.5t-17.5 100zM276 600q0 -59 34 -85t93 -48l166 -59q33 29 54.5 72.5t21.5 82.5q0 59 -33.5 86t-93.5 49l-153 56q-37 -29 -63 -72t-26 -82z" />
<glyph unicode="&#xa8;" horiz-adv-x="956" d="M123 1372q0 51 35 87t86 36t86 -36t35 -87t-35 -87t-86 -36t-86 36t-35 87zM592 1372q0 51 35 87t86 36t86 -36t35 -87t-35 -87t-86 -36t-86 36t-35 87z" />
<glyph unicode="&#xa9;" horiz-adv-x="1658" d="M123 645q0 170 54 305t148.5 228.5t223.5 143.5t280 50q150 0 280 -50t224 -144.5t148.5 -229.5t54.5 -303q0 -170 -54.5 -305t-148.5 -229.5t-224 -143.5t-280 -49q-152 0 -280.5 48t-223 141.5t-148.5 228.5t-54 309zM287 645q0 -133 41 -239.5t113.5 -180t172 -113.5 t215.5 -40q117 0 216.5 40t172 113.5t113.5 180t41 239.5t-41 239.5t-113.5 180.5t-172 114t-216.5 40t-216 -39t-171.5 -113t-113.5 -180.5t-41 -241.5zM530 649q0 131 39 211t94.5 123t116 56.5t103.5 13.5q35 0 67.5 -6.5t59.5 -14.5q31 -8 57 -20v-133q-31 10 -61 18 q-27 8 -60 14.5t-63 6.5q-29 0 -60.5 -6.5t-59.5 -33t-46.5 -81t-18.5 -148.5q0 -84 16.5 -136t41 -81t55.5 -39t59 -10q29 0 64 5t63 13q35 8 70 19v-139q-29 -12 -61 -21q-29 -8 -64 -13t-72 -5q-51 0 -110.5 15t-110.5 60t-85 125t-34 207z" />
<glyph unicode="&#xaa;" horiz-adv-x="1003" d="M133 791q0 90 36 146t90 87t115.5 42t112.5 11h146v58q0 98 -39 133t-133 35q-35 0 -76 -8.5t-76 -18.5q-41 -10 -84 -25v152q33 14 74 24q35 10 83 18.5t107 8.5q74 0 133.5 -16.5t100.5 -56.5t63.5 -107.5t22.5 -171.5v-570h-150l-20 127q-33 -41 -70 -73 q-33 -29 -79 -51.5t-99 -22.5q-45 0 -91 14.5t-83 47t-60.5 86t-23.5 131.5zM174 0v174h635v-174h-635zM307 807q0 -86 33 -117t90 -31q35 0 71 17.5t64 40.5q35 25 68 59v191l-101 -2q-225 -6 -225 -158z" />
<glyph unicode="&#xab;" horiz-adv-x="1146" d="M82 625v123l430 399v-254l-258 -203l258 -211v-254zM573 625v123l431 399v-254l-259 -203l259 -211v-254z" />
<glyph unicode="&#xac;" horiz-adv-x="1433" d="M184 594v184h1065v-575h-184v391h-881z" />
<glyph unicode="&#xad;" horiz-adv-x="1228" d="M184 604v174h860v-174h-860z" />
<glyph unicode="&#xae;" horiz-adv-x="1658" d="M123 645q0 170 54 305t148.5 228.5t223.5 143.5t280 50q150 0 280 -50t224 -144.5t148.5 -229.5t54.5 -303q0 -170 -54.5 -305t-148.5 -229.5t-224 -143.5t-280 -49q-152 0 -280.5 48t-223 141.5t-148.5 228.5t-54 309zM287 645q0 -133 41 -239.5t113.5 -180t172 -113.5 t215.5 -40q117 0 216.5 40t172 113.5t113.5 180t41 239.5t-41 239.5t-113.5 180.5t-172 114t-216.5 40t-216 -39t-171.5 -113t-113.5 -180.5t-41 -241.5zM600 281v757h188q55 0 110.5 -7t98.5 -31.5t70 -69.5t27 -119q0 -78 -39 -124t-94 -71q31 -29 54 -72.5t42 -94.5 l61 -168h-184l-35 127q-14 53 -34.5 100t-47.5 70l-59 -5v-292h-158zM758 686q55 2 90 10.5t53.5 23.5t25.5 37.5t7 53.5q0 33 -6 53.5t-21.5 31.5t-44 15t-71.5 4h-33v-229z" />
<glyph unicode="&#xaf;" horiz-adv-x="849" d="M143 1331v185h564v-185h-564z" />
<glyph unicode="&#xb0;" horiz-adv-x="929" d="M123 1096q0 98 31.5 166.5t82 111.5t111 61.5t117.5 18.5q59 0 120.5 -17.5t110.5 -59.5t80 -110.5t31 -170.5q0 -98 -31 -167t-79 -112t-109.5 -61.5t-122.5 -18.5q-59 0 -120.5 17.5t-111 58.5t-80 110.5t-30.5 172.5zM287 1096q0 -66 14 -111t37.5 -72.5t56.5 -39 t70 -11.5q33 0 64.5 10.5t57 37t41 71.5t15.5 115q0 68 -14.5 113.5t-38 73.5t-56 39t-69.5 11q-35 0 -66.5 -10t-56.5 -36.5t-40 -73t-15 -117.5z" />
<glyph unicode="&#xb1;" horiz-adv-x="1290" d="M184 0v184h922v-184h-922zM184 614v185h369v358h184v-358h369v-185h-369v-286h-184v286h-369z" />
<glyph unicode="&#xb2;" horiz-adv-x="712" d="M121 561v129l217 264q43 53 80 112.5t37 127.5q0 78 -34 103.5t-99 25.5q-35 0 -70 -6t-64 -14q-35 -8 -65 -19v125q27 12 59 23q29 8 65 15t81 7q57 0 108 -11t89 -40t59.5 -77t21.5 -124q0 -51 -17.5 -100t-44 -92t-57 -81t-57.5 -69l-141 -160h319l-16 -139h-471z" />
<glyph unicode="&#xb3;" horiz-adv-x="712" d="M115 584v129q31 -10 63 -19q29 -6 60.5 -11t64.5 -5q80 0 118 31.5t38 124.5q0 41 -14.5 66.5t-39 40.5t-56.5 21.5t-64 6.5h-97v123h97q29 0 56.5 7t49 22.5t34.5 41t13 62.5q0 66 -32.5 84t-90.5 18q-33 0 -67.5 -6t-63.5 -12q-35 -8 -69 -19v123q31 12 65 21 q29 8 66 14t78 6q37 0 84 -8t87 -32.5t67.5 -69t27.5 -115.5q0 -147 -137 -191q70 -16 113.5 -66.5t43.5 -142.5q0 -88 -27.5 -142t-70.5 -85t-96.5 -42t-104.5 -11q-37 0 -71.5 5t-63.5 11q-33 8 -61 19z" />
<glyph unicode="&#xb4;" horiz-adv-x="606" d="M82 1270l201 307h241l-254 -307h-188z" />
<glyph unicode="&#xb5;" horiz-adv-x="1208" d="M205 -389v1474h184v-727q0 -109 27.5 -161t120.5 -52q53 0 103 17.5t91 40.5q47 25 88 57v825h185v-1085h-150l-23 141q-43 -45 -96 -82q-45 -31 -104.5 -55t-128.5 -24q-29 0 -49.5 2t-34.5 6q-16 4 -29 8v-385h-184z" />
<glyph unicode="&#xb6;" horiz-adv-x="1290" d="M82 942q0 147 40 242.5t112.5 151t175 77t225.5 21.5h123v-1434h-164v459q-117 8 -211 34.5t-161.5 81t-103.5 143.5t-36 224zM266 942q0 -98 19.5 -160.5t60.5 -99.5t102.5 -54.5t145.5 -25.5v672q-82 -2 -143.5 -13.5t-102.5 -46t-61.5 -100t-20.5 -172.5zM922 0v1434 h163v-1434h-163z" />
<glyph unicode="&#xb7;" horiz-adv-x="739" d="M205 774q0 70 47 119t119 49t118 -49t46 -119t-46.5 -120t-117.5 -50q-72 0 -119 50.5t-47 119.5z" />
<glyph unicode="&#xb8;" horiz-adv-x="663" d="M82 -199q27 -12 55 -20q25 -8 52.5 -14.5t54.5 -6.5q45 0 66.5 20.5t21.5 72.5q0 29 -5 58.5t-10 53.5q-8 29 -14 55h107q25 -25 45 -57q16 -29 30.5 -65.5t14.5 -81.5q0 -66 -23.5 -106t-58.5 -62.5t-77 -29.5t-79 -7q-35 0 -65.5 6t-57.5 14q-31 8 -57 23v147z" />
<glyph unicode="&#xb9;" horiz-adv-x="712" d="M123 1180v135l237 119h111v-881h-152v713z" />
<glyph unicode="&#xba;" horiz-adv-x="1032" d="M123 983q0 150 38 243t96 143t127 67.5t132 17.5t132 -17.5t127.5 -67.5t96 -143t37.5 -243q0 -152 -36.5 -244t-94 -143t-127 -68.5t-135.5 -17.5q-63 0 -133 15.5t-127 65.5t-95 143t-38 249zM154 0v174h725v-174h-725zM303 983q0 -98 20.5 -162.5t51.5 -101.5 t68.5 -52.5t72.5 -15.5t73 12.5t68.5 48.5t51 100.5t20.5 170.5q0 104 -17.5 169t-47 100.5t-67.5 49t-81 13.5t-81 -13.5t-67.5 -50.5t-47 -101.5t-17.5 -166.5z" />
<glyph unicode="&#xbb;" horiz-adv-x="1146" d="M143 225v254l258 211l-258 203v254l430 -399v-123zM635 225v254l258 211l-258 203v254l430 -399v-123z" />
<glyph unicode="&#xbc;" horiz-adv-x="1835" d="M123 1180v135l237 119h111v-881h-152v713zM467 -225l737 1884h164l-737 -1884h-164zM1167 195v104l131 575h168l-151 -542h192l21 291h129v-291h147l-16 -137h-131v-201h-152v201h-338z" />
<glyph unicode="&#xbd;" horiz-adv-x="1835" d="M123 1180v135l237 119h111v-881h-152v713zM467 -225l737 1884h164l-737 -1884h-164zM1243 0v129l217 264q43 53 80 112.5t37 127.5q0 78 -34 103.5t-99 25.5q-35 0 -70 -6t-63 -15q-35 -8 -66 -18v125q27 12 60 22q29 8 64.5 15.5t80.5 7.5q57 0 108.5 -11.5t89.5 -40 t59.5 -76.5t21.5 -124q0 -51 -17.5 -100t-44.5 -92t-57.5 -81t-57.5 -69l-141 -160h320l-17 -139h-471z" />
<glyph unicode="&#xbe;" horiz-adv-x="1835" d="M115 584v129q31 -10 63 -19q29 -6 60.5 -11t64.5 -5q80 0 118 31.5t38 124.5q0 41 -14.5 66.5t-39 40.5t-56.5 21.5t-64 6.5h-97v123h97q29 0 56.5 7t49 22.5t34.5 41t13 62.5q0 66 -32.5 84t-90.5 18q-33 0 -67.5 -6t-63.5 -12q-35 -8 -69 -19v123q31 12 65 21 q29 8 66 14t78 6q37 0 84 -8t87 -32.5t67.5 -69t27.5 -115.5q0 -147 -137 -191q70 -16 113.5 -66.5t43.5 -142.5q0 -88 -27.5 -142t-70.5 -85t-96.5 -42t-104.5 -11q-37 0 -71.5 5t-63.5 11q-33 8 -61 19zM467 -225l737 1884h164l-737 -1884h-164zM1167 201v104l131 576h168 l-151 -543h192l21 291h129v-291h147l-16 -137h-131v-201h-152v201h-338z" />
<glyph unicode="&#xbf;" horiz-adv-x="866" d="M143 -66q0 57 14.5 100.5t38 79.5t52 64.5l57.5 57.5q39 41 72 95t33 144q0 27 -2 55.5t-9 63.5h172q4 -29 6.5 -56.5t2.5 -52.5q0 -68 -14.5 -121t-38 -94t-51 -73.5t-54.5 -61.5q-41 -41 -69.5 -85t-28.5 -111q0 -49 12 -78t34.5 -44.5t54.5 -20.5t69 -5q45 0 90 8 t80 19q41 12 79 28v-151q-37 -18 -79 -33q-37 -12 -87.5 -21.5t-103.5 -9.5q-57 0 -115.5 11.5t-106.5 44t-78 92t-30 155.5zM344 956q0 61 41 105.5t102 44.5t103.5 -44.5t42.5 -105.5t-42 -104t-104 -43q-61 0 -102 43t-41 104z" />
<glyph unicode="&#xc0;" d="M41 0l395 1434h234l395 -1434h-201l-76 319h-471l-75 -319h-201zM203 1782h258l184 -246h-188zM352 479h402l-127 520q-12 51 -25.5 107.5t-23.5 103.5q-12 53 -25 107q-12 -53 -25 -107q-10 -47 -23 -102t-26 -109z" />
<glyph unicode="&#xc1;" d="M41 0l395 1434h234l395 -1434h-201l-76 319h-471l-75 -319h-201zM352 479h402l-127 520q-12 51 -25.5 107.5t-23.5 103.5q-12 53 -25 107q-12 -53 -25 -107q-10 -47 -23 -102t-26 -109zM455 1536l184 246h258l-254 -246h-188z" />
<glyph unicode="&#xc2;" d="M41 0l395 1434h234l395 -1434h-201l-76 319h-471l-75 -319h-201zM178 1536l283 246h184l283 -246h-230l-145 137l-145 -137h-230zM352 479h402l-127 520q-12 51 -25.5 107.5t-23.5 103.5q-12 53 -25 107q-12 -53 -25 -107q-10 -47 -23 -102t-26 -109z" />
<glyph unicode="&#xc3;" d="M41 0l395 1434h234l395 -1434h-201l-76 319h-471l-75 -319h-201zM246 1556v185q47 29 91 43t87 14q49 0 90 -11t76 -23.5t68.5 -23.5t70.5 -11q29 0 59.5 13t71.5 38v-183q-84 -53 -149 -53q-47 0 -85 11.5t-74 25.5t-72 25.5t-79 11.5q-35 0 -71.5 -15.5t-83.5 -46.5z M352 479h402l-127 520q-12 51 -25.5 107.5t-23.5 103.5q-12 53 -25 107q-12 -53 -25 -107q-10 -47 -23 -102t-26 -109z" />
<glyph unicode="&#xc4;" d="M41 0l395 1434h234l395 -1434h-201l-76 319h-471l-75 -319h-201zM199 1638q0 51 34.5 87t85.5 36t86 -36t35 -87t-34.5 -86.5t-86.5 -35.5q-51 0 -85.5 35.5t-34.5 86.5zM352 479h402l-127 520q-12 51 -25.5 107.5t-23.5 103.5q-12 53 -25 107q-12 -53 -25 -107 q-10 -47 -23 -102t-26 -109zM666 1638q0 51 34.5 87t85.5 36t86 -36t35 -87t-34.5 -86.5t-86.5 -35.5q-51 0 -85.5 35.5t-34.5 86.5z" />
<glyph unicode="&#xc5;" d="M41 0l395 1434h234l395 -1434h-201l-76 319h-471l-75 -319h-201zM311 1665q0 57 20.5 97t54.5 64.5t78 36t89 11.5q43 0 86 -11.5t78 -36t56.5 -64.5t21.5 -97t-19.5 -97t-53.5 -64.5t-78 -36t-91 -11.5q-49 0 -92 10.5t-77 35t-53.5 64.5t-19.5 99zM352 479h402 l-127 520q-12 51 -25.5 107.5t-23.5 103.5q-12 53 -25 107q-12 -53 -25 -107q-10 -47 -23 -102t-26 -109zM444 1665q0 -55 32 -76.5t77 -21.5q41 0 75 21.5t34 76.5t-33 76.5t-76 21.5q-47 0 -78 -22.5t-31 -75.5z" />
<glyph unicode="&#xc6;" horiz-adv-x="1413" d="M20 0l558 1434h753v-172h-450v-402h409v-160h-409v-528h450v-172h-635v319h-350l-108 -319h-218zM401 479h295v854q-18 -59 -39 -121q-16 -53 -36.5 -114.5t-40.5 -116.5z" />
<glyph unicode="&#xc7;" horiz-adv-x="921" d="M143 717q0 166 23.5 284.5t63.5 200.5t91.5 132t105.5 77t108.5 35t99.5 8q47 0 87 -7t71 -15q37 -8 67 -21v-156q-39 12 -76 21q-35 8 -73.5 14t-79.5 6q-53 0 -107.5 -18t-97.5 -79.5t-70.5 -176.5t-27.5 -305q0 -176 22.5 -288t61.5 -176.5t90 -88t108 -23.5 q39 0 83 6.5t81 14.5q43 8 86 22v-164q-31 -8 -65 -16q-29 -6 -68 -13t-80 -9q20 -29 39 -71t19 -95q0 -66 -24 -106t-58.5 -62.5t-76.5 -29.5t-79 -7q-35 0 -65.5 6t-57.5 14q-31 8 -57 23v147q27 -12 55 -20q25 -8 52.5 -14.5t54.5 -6.5q45 0 66.5 20.5t21.5 72.5 q0 35 -6.5 71.5t-12.5 61.5q-68 10 -134.5 45t-120.5 116.5t-87 219t-33 350.5z" />
<glyph unicode="&#xc8;" horiz-adv-x="983" d="M205 0v1434h696v-172h-512v-402h471v-160h-471v-528h512v-172h-696zM246 1782h258l184 -246h-188z" />
<glyph unicode="&#xc9;" horiz-adv-x="983" d="M205 0v1434h696v-172h-512v-402h471v-160h-471v-528h512v-172h-696zM430 1536l184 246h258l-254 -246h-188z" />
<glyph unicode="&#xca;" horiz-adv-x="983" d="M164 1536l282 246h185l282 -246h-229l-145 137l-146 -137h-229zM205 0v1434h696v-172h-512v-402h471v-160h-471v-528h512v-172h-696z" />
<glyph unicode="&#xcb;" horiz-adv-x="983" d="M205 0v1434h696v-172h-512v-402h471v-160h-471v-528h512v-172h-696zM205 1638q0 51 34.5 87t86.5 36q51 0 85.5 -36t34.5 -87t-34.5 -86.5t-85.5 -35.5t-86 35.5t-35 86.5zM674 1638q0 51 34.5 87t86.5 36q51 0 85.5 -36t34.5 -87t-34.5 -86.5t-85.5 -35.5t-86 35.5 t-35 86.5z" />
<glyph unicode="&#xcc;" horiz-adv-x="598" d="M-47 1782h258l184 -246h-188zM205 0v1434h188v-1434h-188z" />
<glyph unicode="&#xcd;" horiz-adv-x="598" d="M203 1536l184 246h258l-254 -246h-188zM205 0v1434h188v-1434h-188z" />
<glyph unicode="&#xce;" horiz-adv-x="598" d="M-76 1536l283 246h184l283 -246h-230l-145 137l-145 -137h-230zM205 0v1434h188v-1434h-188z" />
<glyph unicode="&#xcf;" horiz-adv-x="598" d="M-14 1638q0 51 34.5 87t85.5 36t86 -36t35 -87t-34.5 -86.5t-86.5 -35.5q-51 0 -85.5 35.5t-34.5 86.5zM205 0v1434h188v-1434h-188zM371 1638q0 51 34.5 87t86.5 36q51 0 85.5 -36t34.5 -87t-34.5 -86.5t-85.5 -35.5t-86 35.5t-35 86.5z" />
<glyph unicode="&#xd0;" horiz-adv-x="1228" d="M61 680v160h164v594h240q137 0 250.5 -22.5t195.5 -97.5t128 -216t46 -381q0 -238 -48 -379t-134 -216t-203.5 -98.5t-255.5 -23.5h-219v680h-164zM410 162h67q98 0 177 17.5t133.5 74.5t84 168t29.5 295q0 190 -28.5 300.5t-83 167t-129 72t-166.5 15.5h-84v-432h245 v-160h-245v-518z" />
<glyph unicode="&#xd1;" horiz-adv-x="1269" d="M205 0v1434h182l361 -750q43 -90 73.5 -164t50.5 -127q23 -63 39 -110q-8 82 -16 163q-6 70 -10 147t-4 136v705h184v-1434h-162l-379 780q-35 72 -64.5 141.5t-51.5 122.5q-25 63 -48 121q6 -80 15 -157q4 -66 9 -140.5t5 -132.5v-735h-184zM328 1556v185q47 29 91 43 t87 14q49 0 90 -11t76 -23.5t68.5 -23.5t70.5 -11q29 0 59.5 13t71.5 38v-183q-84 -53 -149 -53q-47 0 -85 11.5t-74 25.5t-72 25.5t-79 11.5q-35 0 -71.5 -15.5t-83.5 -46.5z" />
<glyph unicode="&#xd2;" horiz-adv-x="1167" d="M123 717q0 172 22.5 295t60.5 204.5t86 129t99 72t101.5 30.5t91.5 6t91 -7t101 -31.5t99.5 -72t86 -129t60 -203.5t22.5 -294q0 -174 -21.5 -297t-57 -205t-83.5 -129t-99.5 -70.5t-102.5 -29.5t-96 -6t-96.5 6t-102.5 30.5t-99 71.5t-84 129t-57.5 204t-21.5 296z M262 1782h258l185 -246h-189zM307 717q0 -188 25.5 -304t65.5 -180.5t89.5 -86t96.5 -21.5t96 22.5t89 87t65.5 180.5t25.5 302q0 178 -23.5 293.5t-61.5 181t-88 91.5t-103 26t-103.5 -23.5t-89.5 -89.5t-61.5 -180.5t-22.5 -298.5z" />
<glyph unicode="&#xd3;" horiz-adv-x="1167" d="M123 717q0 172 22.5 295t60.5 204.5t86 129t99 72t101.5 30.5t91.5 6t91 -7t101 -31.5t99.5 -72t86 -129t60 -203.5t22.5 -294q0 -174 -21.5 -297t-57 -205t-83.5 -129t-99.5 -70.5t-102.5 -29.5t-96 -6t-96.5 6t-102.5 30.5t-99 71.5t-84 129t-57.5 204t-21.5 296z M307 717q0 -188 25.5 -304t65.5 -180.5t89.5 -86t96.5 -21.5t96 22.5t89 87t65.5 180.5t25.5 302q0 178 -23.5 293.5t-61.5 181t-88 91.5t-103 26t-103.5 -23.5t-89.5 -89.5t-61.5 -180.5t-22.5 -298.5zM451 1536l184 246h258l-254 -246h-188z" />
<glyph unicode="&#xd4;" horiz-adv-x="1167" d="M123 717q0 172 22.5 295t60.5 204.5t86 129t99 72t101.5 30.5t91.5 6t91 -7t101 -31.5t99.5 -72t86 -129t60 -203.5t22.5 -294q0 -174 -21.5 -297t-57 -205t-83.5 -129t-99.5 -70.5t-102.5 -29.5t-96 -6t-96.5 6t-102.5 30.5t-99 71.5t-84 129t-57.5 204t-21.5 296z M209 1536l283 246h184l282 -246h-229l-145 137l-146 -137h-229zM307 717q0 -188 25.5 -304t65.5 -180.5t89.5 -86t96.5 -21.5t96 22.5t89 87t65.5 180.5t25.5 302q0 178 -23.5 293.5t-61.5 181t-88 91.5t-103 26t-103.5 -23.5t-89.5 -89.5t-61.5 -180.5t-22.5 -298.5z" />
<glyph unicode="&#xd5;" horiz-adv-x="1167" d="M123 717q0 172 22.5 295t60.5 204.5t86 129t99 72t101.5 30.5t91.5 6t91 -7t101 -31.5t99.5 -72t86 -129t60 -203.5t22.5 -294q0 -174 -21.5 -297t-57 -205t-83.5 -129t-99.5 -70.5t-102.5 -29.5t-96 -6t-96.5 6t-102.5 30.5t-99 71.5t-84 129t-57.5 204t-21.5 296z M276 1556v185q47 29 91.5 43t87.5 14q49 0 90 -11t75.5 -23.5t68.5 -23.5t71 -11q29 0 59.5 13t71.5 38v-183q-84 -53 -150 -53q-47 0 -85 11.5t-73.5 25.5t-71.5 25.5t-79 11.5q-35 0 -71.5 -15.5t-84.5 -46.5zM307 717q0 -188 25.5 -304t65.5 -180.5t89.5 -86t96.5 -21.5 t96 22.5t89 87t65.5 180.5t25.5 302q0 178 -23.5 293.5t-61.5 181t-88 91.5t-103 26t-103.5 -23.5t-89.5 -89.5t-61.5 -180.5t-22.5 -298.5z" />
<glyph unicode="&#xd6;" horiz-adv-x="1167" d="M123 717q0 172 22.5 295t60.5 204.5t86 129t99 72t101.5 30.5t91.5 6t91 -7t101 -31.5t99.5 -72t86 -129t60 -203.5t22.5 -294q0 -174 -21.5 -297t-57 -205t-83.5 -129t-99.5 -70.5t-102.5 -29.5t-96 -6t-96.5 6t-102.5 30.5t-99 71.5t-84 129t-57.5 204t-21.5 296z M229 1638q0 51 35 87t86 36t86 -36t35 -87t-35 -86.5t-86 -35.5t-86 35.5t-35 86.5zM307 717q0 -188 25.5 -304t65.5 -180.5t89.5 -86t96.5 -21.5t96 22.5t89 87t65.5 180.5t25.5 302q0 178 -23.5 293.5t-61.5 181t-88 91.5t-103 26t-103.5 -23.5t-89.5 -89.5t-61.5 -180.5 t-22.5 -298.5zM698 1638q0 51 35 87t86 36t86 -36t35 -87t-35 -86.5t-86 -35.5t-86 35.5t-35 86.5z" />
<glyph unicode="&#xd7;" horiz-adv-x="1208" d="M184 975l131 131l289 -289l275 275l131 -131l-275 -275l289 -289l-131 -131l-289 289l-274 -274l-131 131l274 274z" />
<glyph unicode="&#xd8;" horiz-adv-x="1167" d="M123 -225l139 340q-61 78 -100 220t-39 382q0 172 22.5 295t60.5 204.5t86 129t99 72t101.5 30.5t91.5 6q45 0 100 -8t111 -39l102 252h147l-141 -346q61 -78 101 -220.5t40 -375.5q0 -174 -21.5 -297t-57 -205t-83.5 -129t-99.5 -70.5t-102.5 -29.5t-96 -6 q-47 0 -102.5 7t-108.5 36l-103 -248h-147zM307 717q0 -129 11.5 -223.5t33.5 -159.5l379 919q-33 33 -70.5 45.5t-76.5 12.5q-53 0 -103.5 -23.5t-89.5 -89t-61.5 -181.5t-22.5 -300zM438 182q35 -35 73 -47t73 -12q47 0 96 23.5t89 88t65.5 180.5t25.5 302q0 129 -11 222 t-34 161z" />
<glyph unicode="&#xd9;" horiz-adv-x="1220" d="M195 389v1045h184v-1076q0 -121 56.5 -171t174.5 -50q111 0 171.5 49.5t60.5 171.5v1076h184v-1045q0 -211 -102.5 -310t-313.5 -99q-219 0 -317 96t-98 313zM276 1782h259l184 -246h-189z" />
<glyph unicode="&#xda;" horiz-adv-x="1220" d="M195 389v1045h184v-1076q0 -121 56.5 -171t174.5 -50q111 0 171.5 49.5t60.5 171.5v1076h184v-1045q0 -211 -102.5 -310t-313.5 -99q-219 0 -317 96t-98 313zM492 1536l184 246h258l-254 -246h-188z" />
<glyph unicode="&#xdb;" horiz-adv-x="1220" d="M195 389v1045h184v-1076q0 -121 56.5 -171t174.5 -50q111 0 171.5 49.5t60.5 171.5v1076h184v-1045q0 -211 -102.5 -310t-313.5 -99q-219 0 -317 96t-98 313zM236 1536l282 246h184l283 -246h-229l-146 137l-145 -137h-229z" />
<glyph unicode="&#xdc;" horiz-adv-x="1220" d="M195 389v1045h184v-1076q0 -121 56.5 -171t174.5 -50q111 0 171.5 49.5t60.5 171.5v1076h184v-1045q0 -211 -102.5 -310t-313.5 -99q-219 0 -317 96t-98 313zM256 1638q0 51 35 87t86 36t86 -36t35 -87t-35 -86.5t-86 -35.5t-86 35.5t-35 86.5zM725 1638q0 51 35 87 t86 36t86 -36t35 -87t-35 -86.5t-86 -35.5t-86 35.5t-35 86.5z" />
<glyph unicode="&#xdd;" horiz-adv-x="983" d="M0 1434h221l271 -697l270 697h221l-399 -834v-600h-185v600zM375 1536l184 246h258l-254 -246h-188z" />
<glyph unicode="&#xde;" horiz-adv-x="1085" d="M205 0v1434h184v-205h76q125 0 225.5 -19.5t170 -74t106.5 -148.5t37 -244q0 -141 -40 -235t-117 -151.5t-192.5 -82t-265.5 -24.5v-250h-184zM389 391q119 2 201 19.5t133 55.5t73.5 103.5t22.5 167.5q0 119 -24.5 186.5t-71.5 99.5t-114.5 39t-155.5 7h-64v-678z" />
<glyph unicode="&#xdf;" horiz-adv-x="1216" d="M205 0v1075q0 221 91 320.5t298 99.5q178 0 274.5 -78t96.5 -227q0 -53 -11.5 -93t-30 -71t-42 -54.5t-47.5 -41.5q-41 -35 -73 -61.5t-32 -61.5q0 -37 33 -59.5t69 -45.5l93 -57q33 -20 69.5 -48t68.5 -68t52.5 -93t20.5 -123q0 -102 -31 -167.5t-81 -102.5t-116.5 -50 t-138.5 -13q-45 0 -87 5t-77 13q-39 8 -76 20v162q43 -14 86 -22q37 -10 78 -16.5t76 -6.5q37 0 70.5 7.5t59.5 27.5t41 55t15 88q0 39 -14 68t-36.5 50.5t-49.5 37.5t-51 31l-84 51q-27 16 -54.5 35.5t-49 45t-36 60.5t-14.5 82q0 43 13.5 76t35 61.5t47 54t50.5 52.5 q29 33 50 70.5t21 91.5q0 90 -47 129t-135 39q-55 0 -95 -12.5t-65.5 -44t-38 -84t-12.5 -132.5v-1075h-184z" />
<glyph unicode="&#xe0;" d="M133 319q0 111 39 179.5t99.5 106.5t134 50.5t143.5 12.5h178v118q0 55 -14.5 88t-41 50.5t-64.5 21.5t-85 4q-37 0 -82 -7t-88 -16t-77.5 -18.5t-49.5 -13.5v156q45 14 99 26q45 10 103 19.5t124 9.5q74 0 139.5 -13.5t114.5 -51t77.5 -106.5t28.5 -181v-754h-157 l-21 127q-31 -41 -71 -74q-35 -29 -87.5 -51t-123.5 -22q-49 0 -105.5 12t-103.5 48t-78 102.5t-31 176.5zM221 1577h242l201 -307h-189zM317 336q0 -68 14.5 -109t38 -62.5t55.5 -28.5t67 -7q47 0 89 17.5t74 39.5q37 25 72 58v311l-133 -2q-63 0 -114.5 -9t-87.5 -33 t-55.5 -66t-19.5 -109z" />
<glyph unicode="&#xe1;" d="M133 319q0 111 39 179.5t99.5 106.5t134 50.5t143.5 12.5h178v118q0 55 -14.5 88t-41 50.5t-64.5 21.5t-85 4q-37 0 -82 -7t-88 -16t-77.5 -18.5t-49.5 -13.5v156q45 14 99 26q45 10 103 19.5t124 9.5q74 0 139.5 -13.5t114.5 -51t77.5 -106.5t28.5 -181v-754h-157 l-21 127q-31 -41 -71 -74q-35 -29 -87.5 -51t-123.5 -22q-49 0 -105.5 12t-103.5 48t-78 102.5t-31 176.5zM317 336q0 -68 14.5 -109t38 -62.5t55.5 -28.5t67 -7q47 0 89 17.5t74 39.5q37 25 72 58v311l-133 -2q-63 0 -114.5 -9t-87.5 -33t-55.5 -66t-19.5 -109zM430 1270 l201 307h241l-254 -307h-188z" />
<glyph unicode="&#xe2;" d="M133 319q0 111 39 179.5t99.5 106.5t134 50.5t143.5 12.5h178v118q0 55 -14.5 88t-41 50.5t-64.5 21.5t-85 4q-37 0 -82 -7t-88 -16t-77.5 -18.5t-49.5 -13.5v156q45 14 99 26q45 10 103 19.5t124 9.5q74 0 139.5 -13.5t114.5 -51t77.5 -106.5t28.5 -181v-754h-157 l-21 127q-31 -41 -71 -74q-35 -29 -87.5 -51t-123.5 -22q-49 0 -105.5 12t-103.5 48t-78 102.5t-31 176.5zM158 1270l282 307h185l282 -307h-229l-146 188l-145 -188h-229zM317 336q0 -68 14.5 -109t38 -62.5t55.5 -28.5t67 -7q47 0 89 17.5t74 39.5q37 25 72 58v311 l-133 -2q-63 0 -114.5 -9t-87.5 -33t-55.5 -66t-19.5 -109z" />
<glyph unicode="&#xe3;" d="M133 319q0 111 39 179.5t99.5 106.5t134 50.5t143.5 12.5h178v118q0 55 -14.5 88t-41 50.5t-64.5 21.5t-85 4q-37 0 -82 -7t-88 -16t-77.5 -18.5t-49.5 -13.5v156q45 14 99 26q45 10 103 19.5t124 9.5q74 0 139.5 -13.5t114.5 -51t77.5 -106.5t28.5 -181v-754h-157 l-21 127q-31 -41 -71 -74q-35 -29 -87.5 -51t-123.5 -22q-49 0 -105.5 12t-103.5 48t-78 102.5t-31 176.5zM225 1331v185q47 29 91 43t87 14q80 0 170 -57q41 -27 74 -40.5t62 -13.5t59.5 13.5t71.5 37.5v-182q-84 -53 -150 -53q-72 0 -151 53q-92 61 -158 62 q-35 0 -72 -15.5t-84 -46.5zM317 336q0 -68 14.5 -109t38 -62.5t55.5 -28.5t67 -7q47 0 89 17.5t74 39.5q37 25 72 58v311l-133 -2q-63 0 -114.5 -9t-87.5 -33t-55.5 -66t-19.5 -109z" />
<glyph unicode="&#xe4;" d="M133 319q0 111 39 179.5t99.5 106.5t134 50.5t143.5 12.5h178v118q0 55 -14.5 88t-41 50.5t-64.5 21.5t-85 4q-37 0 -82 -7t-88 -16t-77.5 -18.5t-49.5 -13.5v156q45 14 99 26q45 10 103 19.5t124 9.5q74 0 139.5 -13.5t114.5 -51t77.5 -106.5t28.5 -181v-754h-157 l-21 127q-31 -41 -71 -74q-35 -29 -87.5 -51t-123.5 -22q-49 0 -105.5 12t-103.5 48t-78 102.5t-31 176.5zM178 1372q0 51 35 87t86 36t86 -36t35 -87t-35 -87t-86 -36t-86 36t-35 87zM317 336q0 -68 14.5 -109t38 -62.5t55.5 -28.5t67 -7q47 0 89 17.5t74 39.5q37 25 72 58 v311l-133 -2q-63 0 -114.5 -9t-87.5 -33t-55.5 -66t-19.5 -109zM647 1372q0 51 35 87t86 36t86 -36t35 -87t-35 -87t-86 -36t-86 36t-35 87z" />
<glyph unicode="&#xe5;" d="M133 319q0 111 39 179.5t99.5 106.5t134 50.5t143.5 12.5h178v118q0 55 -14.5 88t-41 50.5t-64.5 21.5t-85 4q-37 0 -82 -7t-88 -16t-77.5 -18.5t-49.5 -13.5v156q45 14 99 26q45 10 103 19.5t124 9.5q74 0 139.5 -13.5t114.5 -51t77.5 -106.5t28.5 -181v-754h-157 l-21 127q-31 -41 -71 -74q-35 -29 -87.5 -51t-123.5 -22q-49 0 -105.5 12t-103.5 48t-78 102.5t-31 176.5zM307 1399q0 115 71 172t171 57q45 0 89 -14.5t78 -43t54.5 -71.5t20.5 -100q0 -115 -70 -172.5t-172 -57.5t-172 56.5t-70 173.5zM317 336q0 -68 14.5 -109t38 -62.5 t55.5 -28.5t67 -7q47 0 89 17.5t74 39.5q37 25 72 58v311l-133 -2q-63 0 -114.5 -9t-87.5 -33t-55.5 -66t-19.5 -109zM440 1399q0 -63 32 -91t77 -28q41 0 74.5 28t33.5 91q0 59 -32.5 89t-75.5 30q-47 0 -78 -29t-31 -90z" />
<glyph unicode="&#xe6;" horiz-adv-x="1658" d="M133 319q0 111 39 179.5t99.5 106.5t134 50.5t143.5 12.5h178v118q0 55 -14.5 88t-41 50.5t-64.5 21.5t-85 4q-37 0 -82 -7t-88 -16t-77.5 -18.5t-49.5 -13.5v156q45 14 99 26q45 10 103 19.5t124 9.5q94 0 174 -24.5t121 -108.5q53 78 133 105.5t158 27.5 q72 0 143.5 -20.5t128.5 -82t90 -172t27 -288.5l-2 -58h-615q2 -131 32 -200.5t72 -101t89 -37t86 -5.5t88 8.5t92 18.5q51 10 100 27v-164q-41 -16 -88 -27q-41 -10 -90 -17t-102 -7q-51 0 -105.5 7t-105.5 26.5t-95 55t-75 95.5q-53 -78 -133 -131t-203 -53 q-57 0 -117.5 11t-109.5 47t-80 103.5t-31 177.5zM317 336q0 -68 14.5 -109t38 -62.5t55.5 -28.5t67 -7q45 0 88 15.5t75.5 43t52 62.5t19.5 76v229l-133 -2q-63 0 -114.5 -9t-87.5 -33t-55.5 -66t-19.5 -109zM911 612h432q0 115 -16 184.5t-45 107.5t-66.5 50.5t-78.5 12.5 q-49 0 -90 -14.5t-70 -54.5t-46.5 -108.5t-19.5 -177.5z" />
<glyph unicode="&#xe7;" horiz-adv-x="880" d="M143 537q0 193 50.5 306t123 171.5t152.5 75t141 16.5q43 0 81 -6t67 -15q33 -8 61 -18v-158q-29 10 -63 19q-29 8 -66 14t-74 6q-49 0 -101 -11t-93 -52t-67.5 -124t-26.5 -224q0 -129 24.5 -207t63.5 -120t88 -54.5t96 -12.5q37 0 75 6.5t70 14.5q37 8 74 22v-166 q-29 -10 -59 -18q-27 -8 -61.5 -14t-71.5 -6q18 -29 37.5 -71t19.5 -95q0 -66 -23.5 -106t-58.5 -62.5t-77 -29.5t-79 -7q-35 0 -65.5 6t-56.5 14q-31 8 -58 23v147q27 -12 56 -20q25 -8 52 -14.5t54 -6.5q45 0 66.5 20.5t21.5 72.5q0 35 -6 71.5t-12 61.5q-61 8 -125 36.5 t-114 91t-83 164t-33 259.5z" />
<glyph unicode="&#xe8;" horiz-adv-x="1075" d="M143 543q0 172 35 280.5t92.5 172t131 87t151.5 23.5q72 0 143.5 -20.5t129 -81t90 -171t26.5 -290.5l-2 -58h-614q2 -131 31.5 -200.5t71.5 -101t89 -37t86 -5.5t88 8.5t92 18.5q51 10 101 27v-164q-41 -16 -88 -27q-41 -10 -90.5 -17t-102.5 -7q-80 0 -162 14 t-148.5 71.5t-108.5 170t-42 307.5zM215 1577h242l200 -307h-188zM328 612h432q0 115 -16.5 184.5t-45 107.5t-66.5 50.5t-79 12.5q-49 0 -90 -14.5t-69.5 -54.5t-46 -108.5t-19.5 -177.5z" />
<glyph unicode="&#xe9;" horiz-adv-x="1075" d="M143 543q0 172 35 280.5t92.5 172t131 87t151.5 23.5q72 0 143.5 -20.5t129 -81t90 -171t26.5 -290.5l-2 -58h-614q2 -131 31.5 -200.5t71.5 -101t89 -37t86 -5.5t88 8.5t92 18.5q51 10 101 27v-164q-41 -16 -88 -27q-41 -10 -90.5 -17t-102.5 -7q-80 0 -162 14 t-148.5 71.5t-108.5 170t-42 307.5zM328 612h432q0 115 -16.5 184.5t-45 107.5t-66.5 50.5t-79 12.5q-49 0 -90 -14.5t-69.5 -54.5t-46 -108.5t-19.5 -177.5zM436 1270l201 307h242l-254 -307h-189z" />
<glyph unicode="&#xea;" horiz-adv-x="1075" d="M143 543q0 172 35 280.5t92.5 172t131 87t151.5 23.5q72 0 143.5 -20.5t129 -81t90 -171t26.5 -290.5l-2 -58h-614q2 -131 31.5 -200.5t71.5 -101t89 -37t86 -5.5t88 8.5t92 18.5q51 10 101 27v-164q-41 -16 -88 -27q-41 -10 -90.5 -17t-102.5 -7q-80 0 -162 14 t-148.5 71.5t-108.5 170t-42 307.5zM164 1270l282 307h185l282 -307h-229l-145 188l-146 -188h-229zM328 612h432q0 115 -16.5 184.5t-45 107.5t-66.5 50.5t-79 12.5q-49 0 -90 -14.5t-69.5 -54.5t-46 -108.5t-19.5 -177.5z" />
<glyph unicode="&#xeb;" horiz-adv-x="1075" d="M143 543q0 172 35 280.5t92.5 172t131 87t151.5 23.5q72 0 143.5 -20.5t129 -81t90 -171t26.5 -290.5l-2 -58h-614q2 -131 31.5 -200.5t71.5 -101t89 -37t86 -5.5t88 8.5t92 18.5q51 10 101 27v-164q-41 -16 -88 -27q-41 -10 -90.5 -17t-102.5 -7q-80 0 -162 14 t-148.5 71.5t-108.5 170t-42 307.5zM184 1372q0 51 35 87t86 36t86 -36t35 -87t-35 -87t-86 -36t-86 36t-35 87zM328 612h432q0 115 -16.5 184.5t-45 107.5t-66.5 50.5t-79 12.5q-49 0 -90 -14.5t-69.5 -54.5t-46 -108.5t-19.5 -177.5zM651 1372q0 51 35 87t86 36t86 -36 t35 -87t-35 -87t-86 -36t-86 36t-35 87z" />
<glyph unicode="&#xec;" horiz-adv-x="593" d="M-49 1577h242l200 -307h-188zM205 0v1085h184v-1085h-184z" />
<glyph unicode="&#xed;" horiz-adv-x="593" d="M205 0v1085h184v-1085h-184zM205 1270l201 307h241l-254 -307h-188z" />
<glyph unicode="&#xee;" horiz-adv-x="593" d="M-78 1270l283 307h184l283 -307h-230l-145 188l-145 -188h-230zM205 0v1085h184v-1085h-184z" />
<glyph unicode="&#xef;" horiz-adv-x="593" d="M-16 1372q0 51 34.5 87t85.5 36t86 -36t35 -87t-34.5 -87t-86.5 -36q-51 0 -85.5 36t-34.5 87zM205 0v1085h184v-1085h-184zM369 1372q0 51 34.5 87t85.5 36t86 -36t35 -87t-34.5 -87t-86.5 -36q-51 0 -85.5 36t-34.5 87z" />
<glyph unicode="&#xf0;" horiz-adv-x="1146" d="M123 477q0 129 36 214t94 136.5t134 73t156 21.5q51 0 99 -15.5t85 -32.5q43 -23 82 -47q-37 180 -121 287l-227 -151v188l106 72q-70 43 -154.5 66.5t-183.5 33.5v152q156 -8 275 -49.5t207 -108.5l231 153v-188l-119 -78q98 -127 139.5 -290t41.5 -341 q0 -182 -39 -297.5t-101.5 -181t-141.5 -90t-159 -24.5q-66 0 -142.5 16t-142 69.5t-110.5 150.5t-45 261zM307 477q0 -119 22.5 -189.5t58.5 -107.5t82 -48t93 -11q49 0 95.5 16.5t82 63.5t57 132t21.5 220q0 14 -1 39.5t-3 50.5q-2 29 -2 62q-37 20 -78 36 q-35 14 -80 26.5t-92 12.5q-141 0 -198.5 -71.5t-57.5 -231.5z" />
<glyph unicode="&#xf1;" horiz-adv-x="1239" d="M205 0v1085h137l41 -133q49 41 104 76q47 29 111 53.5t135 24.5q68 0 125 -15.5t98 -52.5t64.5 -99t23.5 -157v-782h-184v791q0 55 -15.5 84.5t-41 44t-56 17.5t-61.5 3q-57 0 -110.5 -17.5t-94.5 -37.5q-49 -23 -92 -54v-831h-184zM313 1331v185q47 29 91.5 43t87.5 14 q80 0 170 -57q41 -27 73.5 -40.5t61.5 -13.5t59.5 13.5t71.5 37.5v-182q-84 -53 -150 -53q-72 0 -151 53q-92 61 -158 62q-35 0 -72 -15.5t-84 -46.5z" />
<glyph unicode="&#xf2;" horiz-adv-x="1134" d="M123 543q0 182 42 292.5t107.5 171t144.5 80t150 19.5q72 0 151 -17.5t144.5 -77t107.5 -171t42 -297.5q0 -190 -42 -302t-107.5 -170.5t-143.5 -74.5t-152 -16t-151.5 18t-143 76.5t-107.5 170t-42 298.5zM225 1577h242l201 -307h-189zM307 543q0 -147 27.5 -231.5 t67.5 -126.5t85 -52t80 -10t80 11t85 54t67.5 126.5t27.5 228.5q0 150 -24.5 234.5t-63.5 125.5t-84 51.5t-88 10.5t-88 -10.5t-84 -53.5t-63.5 -127t-24.5 -231z" />
<glyph unicode="&#xf3;" horiz-adv-x="1134" d="M123 543q0 182 42 292.5t107.5 171t144.5 80t150 19.5q72 0 151 -17.5t144.5 -77t107.5 -171t42 -297.5q0 -190 -42 -302t-107.5 -170.5t-143.5 -74.5t-152 -16t-151.5 18t-143 76.5t-107.5 170t-42 298.5zM307 543q0 -147 27.5 -231.5t67.5 -126.5t85 -52t80 -10t80 11 t85 54t67.5 126.5t27.5 228.5q0 150 -24.5 234.5t-63.5 125.5t-84 51.5t-88 10.5t-88 -10.5t-84 -53.5t-63.5 -127t-24.5 -231zM461 1270l201 307h241l-254 -307h-188z" />
<glyph unicode="&#xf4;" horiz-adv-x="1134" d="M123 543q0 182 42 292.5t107.5 171t144.5 80t150 19.5q72 0 151 -17.5t144.5 -77t107.5 -171t42 -297.5q0 -190 -42 -302t-107.5 -170.5t-143.5 -74.5t-152 -16t-151.5 18t-143 76.5t-107.5 170t-42 298.5zM193 1270l282 307h184l283 -307h-229l-146 188l-145 -188h-229z M307 543q0 -147 27.5 -231.5t67.5 -126.5t85 -52t80 -10t80 11t85 54t67.5 126.5t27.5 228.5q0 150 -24.5 234.5t-63.5 125.5t-84 51.5t-88 10.5t-88 -10.5t-84 -53.5t-63.5 -127t-24.5 -231z" />
<glyph unicode="&#xf5;" horiz-adv-x="1134" d="M123 543q0 182 42 292.5t107.5 171t144.5 80t150 19.5q72 0 151 -17.5t144.5 -77t107.5 -171t42 -297.5q0 -190 -42 -302t-107.5 -170.5t-143.5 -74.5t-152 -16t-151.5 18t-143 76.5t-107.5 170t-42 298.5zM260 1331v185q47 29 91 43t87 14q80 0 170 -57q41 -27 74 -40.5 t61 -13.5q29 0 60 13.5t71 37.5v-182q-84 -53 -149 -53q-72 0 -152 53q-92 61 -157 62q-35 0 -72 -15.5t-84 -46.5zM307 543q0 -147 27.5 -231.5t67.5 -126.5t85 -52t80 -10t80 11t85 54t67.5 126.5t27.5 228.5q0 150 -24.5 234.5t-63.5 125.5t-84 51.5t-88 10.5t-88 -10.5 t-84 -53.5t-63.5 -127t-24.5 -231z" />
<glyph unicode="&#xf6;" horiz-adv-x="1134" d="M123 543q0 182 42 292.5t107.5 171t144.5 80t150 19.5q72 0 151 -17.5t144.5 -77t107.5 -171t42 -297.5q0 -190 -42 -302t-107.5 -170.5t-143.5 -74.5t-152 -16t-151.5 18t-143 76.5t-107.5 170t-42 298.5zM213 1372q0 51 35 87t86 36t86 -36t35 -87t-35 -87t-86 -36 t-86 36t-35 87zM307 543q0 -147 27.5 -231.5t67.5 -126.5t85 -52t80 -10t80 11t85 54t67.5 126.5t27.5 228.5q0 150 -24.5 234.5t-63.5 125.5t-84 51.5t-88 10.5t-88 -10.5t-84 -53.5t-63.5 -127t-24.5 -231zM682 1372q0 51 35 87t86 36t86 -36t35 -87t-35 -87t-86 -36 t-86 36t-35 87z" />
<glyph unicode="&#xf7;" horiz-adv-x="1292" d="M184 594v184h924v-184h-924zM502 272q0 61 42 104.5t103 43.5t102.5 -43.5t41.5 -104.5t-41 -105t-103 -44q-61 0 -103 44t-42 105zM502 1102q0 61 42 104t103 43t102.5 -43t41.5 -104t-41 -105.5t-103 -44.5q-61 0 -103 44t-42 106z" />
<glyph unicode="&#xf8;" horiz-adv-x="1134" d="M123 -225l145 303q-66 59 -105.5 169.5t-39.5 295.5q0 182 42 292.5t107.5 171t144.5 80t150 19.5q45 0 91.5 -6t93.5 -23l112 234h148l-146 -303q63 -59 104.5 -170t41.5 -295q0 -190 -42 -302t-107.5 -170.5t-143.5 -74.5t-152 -16q-45 0 -91 6t-93 22l-113 -233h-147z M307 543q0 -100 13.5 -170t35.5 -117l330 686q-29 14 -59.5 18.5t-59.5 4.5q-43 0 -88 -10.5t-84 -53.5t-63.5 -127t-24.5 -231zM451 150q31 -16 61.5 -21.5t54.5 -5.5q35 0 80 11t85 54t67.5 126.5t27.5 228.5q0 104 -12 174.5t-33 118.5z" />
<glyph unicode="&#xf9;" horiz-adv-x="1198" d="M195 297v788h184v-747q0 -98 30.5 -145.5t122.5 -47.5q49 0 98.5 17.5t90.5 40.5q47 25 88 57v825h184v-1085h-149l-23 141q-43 -45 -96 -82q-45 -31 -105.5 -55t-127.5 -24q-66 0 -120.5 16t-94 53t-61 97.5t-21.5 150.5zM266 1577h242l201 -307h-189z" />
<glyph unicode="&#xfa;" horiz-adv-x="1198" d="M195 297v788h184v-747q0 -98 30.5 -145.5t122.5 -47.5q49 0 98.5 17.5t90.5 40.5q47 25 88 57v825h184v-1085h-149l-23 141q-43 -45 -96 -82q-45 -31 -105.5 -55t-127.5 -24q-66 0 -120.5 16t-94 53t-61 97.5t-21.5 150.5zM492 1270l200 307h242l-254 -307h-188z" />
<glyph unicode="&#xfb;" horiz-adv-x="1198" d="M195 297v788h184v-747q0 -98 30.5 -145.5t122.5 -47.5q49 0 98.5 17.5t90.5 40.5q47 25 88 57v825h184v-1085h-149l-23 141q-43 -45 -96 -82q-45 -31 -105.5 -55t-127.5 -24q-66 0 -120.5 16t-94 53t-61 97.5t-21.5 150.5zM225 1270l283 307h184l283 -307h-230l-145 188 l-145 -188h-230z" />
<glyph unicode="&#xfc;" horiz-adv-x="1198" d="M195 297v788h184v-747q0 -98 30.5 -145.5t122.5 -47.5q49 0 98.5 17.5t90.5 40.5q47 25 88 57v825h184v-1085h-149l-23 141q-43 -45 -96 -82q-45 -31 -105.5 -55t-127.5 -24q-66 0 -120.5 16t-94 53t-61 97.5t-21.5 150.5zM244 1372q0 51 34.5 87t86.5 36q51 0 85.5 -36 t34.5 -87t-34.5 -87t-85.5 -36t-86 36t-35 87zM713 1372q0 51 34.5 87t86.5 36q51 0 85.5 -36t34.5 -87t-34.5 -87t-85.5 -36t-86 36t-35 87z" />
<glyph unicode="&#xfd;" horiz-adv-x="972" d="M31 1085h221l268 -878l213 878h209l-354 -1208q-29 -96 -65 -152.5t-78 -86t-86 -39t-87 -9.5q-35 0 -68.5 4.5t-60.5 10.5q-33 8 -59 16v152q35 -8 70 -15q29 -6 59.5 -10t52.5 -4q25 0 47.5 8t42 30.5t37 62.5t31.5 102l12 55zM410 1270l200 307h242l-254 -307h-188z " />
<glyph unicode="&#xfe;" horiz-adv-x="1187" d="M205 -389v1864h184v-496q31 35 72 63q35 23 84 43.5t110 20.5q47 0 114 -14.5t128 -69.5t104 -166.5t43 -306.5q0 -131 -24.5 -224.5t-63 -156t-87 -100t-97.5 -57t-93 -25.5t-75 -6q-76 0 -133 21.5t-82 37.5v-428h-184zM389 168q23 -8 76 -24.5t125 -16.5q47 0 95 15.5 t87 61.5t63.5 128t24.5 217q0 150 -23.5 232.5t-59.5 120.5t-79 45t-84 7q-35 0 -67.5 -10t-61 -24.5t-53 -31t-43.5 -30.5v-690z" />
<glyph unicode="&#xff;" horiz-adv-x="972" d="M31 1085h221l268 -878l213 878h209l-354 -1208q-29 -96 -65 -152.5t-78 -86t-86 -39t-87 -9.5q-35 0 -68.5 4.5t-60.5 10.5q-33 8 -59 16v152q35 -8 70 -15q29 -6 59.5 -10t52.5 -4q25 0 47.5 8t42 30.5t37 62.5t31.5 102l12 55zM131 1372q0 51 35 87t86 36t86 -36 t35 -87t-35 -87t-86 -36t-86 36t-35 87zM600 1372q0 51 35 87t86 36t86 -36t35 -87t-35 -87t-86 -36t-86 36t-35 87z" />
<glyph unicode="&#x152;" horiz-adv-x="1474" d="M123 717q0 172 22.5 295t60.5 204.5t86 129t99 72t101.5 30.5t91.5 6q35 0 72.5 -3t78.5 -17h658v-172h-451v-402h410v-160h-410v-528h451v-172h-645q-39 -12 -84.5 -16t-79.5 -4q-45 0 -96.5 6t-102.5 30.5t-99 71.5t-84 129t-57.5 204t-21.5 296zM307 717 q0 -188 25.5 -304t65.5 -180.5t89.5 -87t96.5 -22.5q25 0 55.5 6t56.5 14q31 8 62 21v1102q-25 12 -51 22q-23 8 -54.5 15.5t-68.5 7.5q-53 0 -103.5 -23.5t-89.5 -89t-61.5 -181.5t-22.5 -300z" />
<glyph unicode="&#x153;" horiz-adv-x="1759" d="M123 543q0 182 42 292.5t107.5 171t144.5 80t150 19.5q45 0 93.5 -6t94.5 -24.5t88 -52.5t75 -89q59 102 143 137t176 35q72 0 143.5 -20.5t129 -81t90 -171t26.5 -290.5l-2 -58h-614q2 -131 31.5 -200.5t71.5 -101t89 -37t86 -5.5t88 8.5t92 18.5q51 10 101 27v-164 q-41 -16 -88 -27q-41 -10 -90.5 -17t-102.5 -7q-49 0 -101 5t-101.5 22.5t-92.5 50t-75 89.5q-33 -53 -75 -85.5t-88 -51t-94.5 -24.5t-93.5 -6q-74 0 -151.5 18t-143 76.5t-107.5 170t-42 298.5zM307 543q0 -147 27.5 -231.5t67.5 -126.5t85 -52t80 -10t80 11t85 54 t67.5 126.5t27.5 228.5q0 150 -24.5 234.5t-63.5 125.5t-84 51.5t-88 10.5t-88 -10.5t-84 -53.5t-63.5 -127t-24.5 -231zM1012 612h432q0 115 -16.5 184.5t-45 107.5t-66.5 50.5t-79 12.5q-49 0 -90 -14.5t-69.5 -54.5t-46 -108.5t-19.5 -177.5z" />
<glyph unicode="&#x178;" horiz-adv-x="983" d="M0 1434h221l271 -697l270 697h221l-399 -834v-600h-185v600zM137 1638q0 51 35 87t86 36t86 -36t35 -87t-35 -86.5t-86 -35.5t-86 35.5t-35 86.5zM606 1638q0 51 35 87t86 36t86 -36t35 -87t-35 -86.5t-86 -35.5t-86 35.5t-35 86.5z" />
<glyph unicode="&#x2c6;" horiz-adv-x="913" d="M82 1270l283 307h184l282 -307h-229l-145 188l-146 -188h-229z" />
<glyph unicode="&#x2dc;" horiz-adv-x="901" d="M143 1331v185q47 29 91.5 43t87.5 14q80 0 170 -57q41 -27 73.5 -40.5t61.5 -13.5t59.5 13.5t71.5 37.5v-182q-84 -53 -150 -53q-72 0 -151 53q-92 61 -158 62q-35 0 -72 -15.5t-84 -46.5z" />
<glyph unicode="&#x2000;" horiz-adv-x="937" />
<glyph unicode="&#x2001;" horiz-adv-x="1874" />
<glyph unicode="&#x2002;" horiz-adv-x="937" />
<glyph unicode="&#x2003;" horiz-adv-x="1874" />
<glyph unicode="&#x2004;" horiz-adv-x="624" />
<glyph unicode="&#x2005;" horiz-adv-x="468" />
<glyph unicode="&#x2006;" horiz-adv-x="312" />
<glyph unicode="&#x2007;" horiz-adv-x="312" />
<glyph unicode="&#x2008;" horiz-adv-x="234" />
<glyph unicode="&#x2009;" horiz-adv-x="374" />
<glyph unicode="&#x200a;" horiz-adv-x="104" />
<glyph unicode="&#x2010;" horiz-adv-x="1146" d="M184 604v174h779v-174h-779z" />
<glyph unicode="&#x2011;" horiz-adv-x="1146" d="M184 604v174h779v-174h-779z" />
<glyph unicode="&#x2012;" horiz-adv-x="1146" d="M184 604v174h779v-174h-779z" />
<glyph unicode="&#x2013;" horiz-adv-x="1351" d="M184 604v174h983v-174h-983z" />
<glyph unicode="&#x2014;" horiz-adv-x="1556" d="M184 604v174h1188v-174h-1188z" />
<glyph unicode="&#x2018;" horiz-adv-x="647" d="M164 870l131 564h147l-36 -564h-242z" />
<glyph unicode="&#x2019;" horiz-adv-x="647" d="M205 870l37 564h241l-131 -564h-147z" />
<glyph unicode="&#x201a;" horiz-adv-x="647" d="M205 -307l37 563h241l-131 -563h-147z" />
<glyph unicode="&#x201c;" horiz-adv-x="1097" d="M164 870l131 564h147l-36 -564h-242zM614 870l131 564h148l-37 -564h-242z" />
<glyph unicode="&#x201d;" horiz-adv-x="1097" d="M205 870l37 564h241l-131 -564h-147zM655 870l37 564h242l-131 -564h-148z" />
<glyph unicode="&#x201e;" horiz-adv-x="1097" d="M205 -307l37 563h241l-131 -563h-147zM655 -307l37 563h242l-131 -563h-148z" />
<glyph unicode="&#x2022;" horiz-adv-x="821" d="M205 774q0 43 16.5 81t44 65.5t65.5 44t81 16.5q45 0 81.5 -16.5t64.5 -44t43 -65.5t15 -81t-15 -81t-43 -66.5t-64.5 -45t-81.5 -16.5t-83 16.5t-65.5 45t-43 66.5t-15.5 81z" />
<glyph unicode="&#x2026;" horiz-adv-x="1890" d="M205 129q0 61 42 104t103 43t102.5 -43t41.5 -104t-41 -105t-103 -44q-61 0 -103 44t-42 105zM801 129q0 61 42 104t103 43t102.5 -43t41.5 -104t-41 -105t-103 -44q-61 0 -103 44t-42 105zM1397 129q0 61 42 104t103 43t102.5 -43t41.5 -104t-41 -105t-103 -44 q-61 0 -103 44t-42 105z" />
<glyph unicode="&#x202f;" horiz-adv-x="374" />
<glyph unicode="&#x2039;" horiz-adv-x="655" d="M82 625v123l430 399v-254l-258 -203l258 -211v-254z" />
<glyph unicode="&#x203a;" horiz-adv-x="655" d="M143 225v254l258 211l-258 203v254l430 -399v-123z" />
<glyph unicode="&#x205f;" horiz-adv-x="468" />
<glyph unicode="&#x2122;" horiz-adv-x="1648" d="M61 1288v146h764l260 -508l256 508h111l33 -861h-158l-2 568l-240 -447l-235 439l-6 -560h-162l29 715h-254v-715h-162v715h-234z" />
<glyph unicode="&#x25fc;" horiz-adv-x="1085" d="M0 0v1085h1085v-1085h-1085z" />
</font>
</defs>
</svg>
